Eagles – Greatest Hits Volume 2




Artist: Eagles
Year: 1982/1984
Genre: Rock
Notes: Discogs
Add. Notes:
Cover incl.: Yes
Encoder: FLAC
Bitrate: ~700 kBit/s (44.1 kHz/16 Bit/s)
Log & Cue incl.: Yes
Size: 312,9 MB
Password: “slam” (without ” “)


All Downloads/Hosters are compatible

Download 1
Turbobit.net
NitroFlare.com
KatFile.com
Rapidgator.net
Download 2
Turbobit.net
NitroFlare.com
KatFile.com
Rapidgator.net

Tracklist:

1 - Hotel California - 6:29
2 - Heartache Tonight - 4:24
3 - Seven Bridges Road - 2:58
4 - Victim Of Love - 4:09
5 - The Sad Cafe - 5:32
6 - Life In The Fast Lane - 4:44
7 - I Can't Tell You Why - 4:54
8 - New Kid In Town - 5:04
9 - The Long Run - 3:41
10 - After The Thrill Is Gone - 4:40

EAC-Log, CUE-Sheed & NFO:

Click to open spoiler
Exact Audio Copy V1.0 beta 3 from 29. August 2011

EAC extraction logfile from 10. January 2014, 17:49

Eagles / Eagles Greatest Hits Volume 2

Used drive : SONY BD RW BDX-S600U Adapter: 2 ID: 1

Read mode : Secure
Utilize accurate stream : Yes
Defeat audio cache : Yes
Make use of C2 pointers : No

Read offset correction : 48
Overread into Lead-In and Lead-Out : No
Fill up missing offset samples with silence : Yes
Delete leading and trailing silent blocks : No
Null samples used in CRC calculations : Yes
Used interface : Native Win32 interface for Win NT & 2000

Used output format : User Defined Encoder
Selected bitrate : 128 kBit/s
Quality : High
Add ID3 tag : No
Command line compressor : C:\Program Files (x86)\Exact Audio Copy\Flac\flac.exe
Additional command line options : -V -8 -T “Date=%year%” -T “Genre=%genre%” %source%

TOC of the extracted CD

Track | Start | Length | Start sector | End sector
———————————————————
1 | 0:00.32 | 6:29.33 | 32 | 29239
2 | 6:29.65 | 4:23.65 | 29240 | 49029
3 | 10:53.55 | 2:57.55 | 49030 | 62359
4 | 13:51.35 | 4:09.17 | 62360 | 81051
5 | 18:00.52 | 5:31.40 | 81052 | 105916
6 | 23:32.17 | 4:44.55 | 105917 | 127271
7 | 28:16.72 | 4:53.48 | 127272 | 149294
8 | 33:10.45 | 5:03.40 | 149295 | 172059
9 | 38:14.10 | 3:41.15 | 172060 | 188649
10 | 41:55.25 | 4:40.32 | 188650 | 209681

Range status and errors

Selected range

Filename D:\Eagles Discography\Compilations\1982. Eagles – Greatest Hits Volume 2 (Asylum Rec.(target) 9 60205-2,Germany)\Eagles – Eagles Greatest Hits Volume 2.wav

Peak level 89.1 %
Extraction speed 6.5 X
Range quality 99.9 %
Test CRC 7B9258BF
Copy CRC 7B9258BF
Copy OK

No errors occurred

AccurateRip summary

Track 1 accurately ripped (confidence 23) [1D24DA73] (AR v2)
Track 2 accurately ripped (confidence 22) [88F79E33] (AR v2)
Track 3 accurately ripped (confidence 23) [DAE6250B] (AR v2)
Track 4 accurately ripped (confidence 23) [64612A3D] (AR v2)
Track 5 accurately ripped (confidence 23) [575E22A5] (AR v2)
Track 6 accurately ripped (confidence 23) [364B14D4] (AR v2)
Track 7 accurately ripped (confidence 23) [068FE9ED] (AR v2)
Track 8 accurately ripped (confidence 23) [85C4C10E] (AR v2)
Track 9 accurately ripped (confidence 23) [97D5B15A] (AR v2)
Track 10 accurately ripped (confidence 23) [FBA7E551] (AR v2)

All tracks accurately ripped

End of status report

—- CUETools DB Plugin V2.1.3

[CTDB TOCID: Pq9aje_zUnTxcyHzxJSkSKzLj1I-] found, Submit result: discs with pregaps not supported in this protocol version
[3a9203b3] (62/62) Differs in 0 samples @
You can use CUETools to repair this rip.

==== Log checksum 40EDD71FF751CF36ED23F228FF9BC038246FCF850F6786E298C19B128971C15F ====

REM GENRE Rock
REM DATE 1982
REM DISCID 910AEB0A
REM COMMENT “ExactAudioCopy v1.0b3”
CATALOG 0075596020527
PERFORMER “Eagles”
TITLE “Eagles Greatest Hits Volume 2”
FILE “Eagles – Eagles Greatest Hits Volume 2.flac” WAVE
TRACK 01 AUDIO
TITLE “Hotel California”
PERFORMER “Eagles”
INDEX 00 00:00:00
INDEX 01 00:00:32
TRACK 02 AUDIO
TITLE “Heartache Tonight”
PERFORMER “Eagles”
INDEX 00 06:28:53
INDEX 01 06:29:65
TRACK 03 AUDIO
TITLE “Seven Bridges Road”
PERFORMER “Eagles”
INDEX 00 10:53:53
INDEX 01 10:53:55
TRACK 04 AUDIO
TITLE “Victim of Love”
PERFORMER “Eagles”
INDEX 00 13:51:33
INDEX 01 13:51:35
TRACK 05 AUDIO
TITLE “The Sad Cafe”
PERFORMER “Eagles”
INDEX 00 18:00:50
INDEX 01 18:00:52
TRACK 06 AUDIO
TITLE “Life in the Fast Lane”
PERFORMER “Eagles”
INDEX 00 23:32:15
INDEX 01 23:32:17
TRACK 07 AUDIO
TITLE “I Can’t Tell You Why”
PERFORMER “Eagles”
INDEX 00 28:16:20
INDEX 01 28:16:72
TRACK 08 AUDIO
TITLE “New Kid in Town”
PERFORMER “Eagles”
INDEX 00 33:10:40
INDEX 01 33:10:45
TRACK 09 AUDIO
TITLE “The Long Run”
PERFORMER “Eagles”
INDEX 00 38:13:74
INDEX 01 38:14:10
TRACK 10 AUDIO
TITLE “After the Thrill Is Gone”
PERFORMER “Eagles”
INDEX 00 41:54:58
INDEX 01 41:55:25


Leave a Reply

Your email address will not be published. Required fields are marked *

Enter the text from the image below
 

This site uses Akismet to reduce spam. Learn how your comment data is processed.