Eagles – Eagles




Artist: Eagles
Year: 1972/1990
Genre: Rock
Notes: Discogs
Add. Notes:
Cover incl.: Yes
Encoder: FLAC
Bitrate: ~900 kBit/s (44.1 kHz/16 Bit/s)
Log & Cue incl.: Yes
Size: 267,89 MB
Password: “slam” (without ” “)


All Downloads/Hosters are compatible

Download 1
Turbobit.net
Rapidgator.net
KatFile.com
UsersDrive.com
CloudShare.to
Download 2
Turbobit.net
Rapidgator.net
KatFile.com
UsersDrive.com
CloudShare.to
Download 3
Turbobit.net
Rapidgator.net
KatFile.com
UsersDrive.com
CloudShare.to

Tracklist:

1 - Take It Easy - 3:29
2 - Witchy Woman - 4:10
3 - Chug All Night - 3:13
4 - Most Of Us Are Sad - 3:33
5 - Nightingale - 4:05
6 - Train Leaves Here This Morning - 4:07
7 - Take The Devil - 4:00
8 - Earlybird - 3:00
9 - Peaceful Easy Feeling - 4:16
10 - Tryin' - 2:50

EAC-Log, CUE-Sheed & NFO:

Click to open spoiler
Exact Audio Copy V1.0 beta 4 from 7. December 2014

EAC extraction logfile from 8. April 2015, 15:19

Eagles / Eagles (1972)

Used drive : SONY BD RW BDX-S600U Adapter: 1 ID: 2

Read mode : Secure
Utilize accurate stream : Yes
Defeat audio cache : Yes
Make use of C2 pointers : No

Read offset correction : 48
Overread into Lead-In and Lead-Out : No
Fill up missing offset samples with silence : Yes
Delete leading and trailing silent blocks : No
Null samples used in CRC calculations : Yes
Used interface : Native Win32 interface for Win NT & 2000

Used output format : User Defined Encoder
Selected bitrate : 768 kBit/s
Quality : High
Add ID3 tag : No
Command line compressor : C:\Program Files (x86)\Exact Audio Copy\FLAC\FLAC.EXE
Additional command line options : -6 -V -T “ARTIST=%artist%” -T “TITLE=%title%” -T “ALBUM=%albumtitle%” -T “DATE=%year%” -T “TRACKNUMBER=%tracknr%” -T “GENRE=%genre%” -T “COMMENT=%comment%” -T “BAND=%albuminterpret%” -T “ALBUMARTIST=%albuminterpret%” -T “COMPOSER=%composer%” %haslyrics%–tag-from-file=LYRICS=”%lyricsfile%”%haslyrics% -T “DISCNUMBER=%cdnumber%” -T “TOTALDISCS=%totalcds%” -T “TOTALTRACKS=%numtracks%” %hascover%–picture=”%coverfile%”%hascover% %source% -o %dest%

TOC of the extracted CD

Track | Start | Length | Start sector | End sector
———————————————————
1 | 0:00.00 | 3:35.45 | 0 | 16169
2 | 3:35.45 | 4:13.07 | 16170 | 35151
3 | 7:48.52 | 3:18.65 | 35152 | 50066
4 | 11:07.42 | 3:38.25 | 50067 | 66441
5 | 14:45.67 | 4:08.28 | 66442 | 85069
6 | 18:54.20 | 4:13.30 | 85070 | 104074
7 | 23:07.50 | 4:04.22 | 104075 | 122396
8 | 27:11.72 | 3:02.30 | 122397 | 136076
9 | 30:14.27 | 4:20.73 | 136077 | 155649
10 | 34:35.25 | 2:54.55 | 155650 | 168754

Range status and errors

Selected range

Filename D:\Eagles Discography\Studio\1972. Eagles – Eagles\1972. Eagles – Eagles (Asylum Rec.,7559-60623-2,Germany)\Eagles – Eagles (1972).wav

Peak level 100.0 %
Extraction speed 13.5 X
Range quality 100.0 %
Test CRC 66AB4B3E
Copy CRC 66AB4B3E
Copy OK

No errors occurred

AccurateRip summary

Track 1 accurately ripped (confidence 32) [56192F5C] (AR v2)
Track 2 accurately ripped (confidence 32) [2FDA8FD1] (AR v2)
Track 3 accurately ripped (confidence 32) [0F4C67A2] (AR v2)
Track 4 accurately ripped (confidence 32) [72BFE49A] (AR v2)
Track 5 accurately ripped (confidence 31) [3381BEB4] (AR v2)
Track 6 accurately ripped (confidence 31) [54040ED6] (AR v2)
Track 7 accurately ripped (confidence 30) [768AE2A6] (AR v2)
Track 8 accurately ripped (confidence 31) [5DAA36C0] (AR v2)
Track 9 accurately ripped (confidence 31) [E4BBA94D] (AR v2)
Track 10 accurately ripped (confidence 31) [1B6737B1] (AR v2)

All tracks accurately ripped

End of status report

—- CUETools DB Plugin V2.1.4

[CTDB TOCID: TYLtipjWXVlfVldsWHhcemYt.0E-] found
Submit result: TYLtipjWXVlfVldsWHhcemYt.0E- has been confirmed
Track | CTDB Status
1 | (40/40) Accurately ripped
2 | (39/40) Accurately ripped
3 | (38/40) Accurately ripped
4 | (38/40) Accurately ripped
5 | (38/40) Accurately ripped
6 | (38/40) Accurately ripped
7 | (38/40) Accurately ripped
8 | (37/40) Accurately ripped
9 | (38/40) Accurately ripped
10 | (37/40) Accurately ripped

==== Log checksum A24D469684A075E36E5B8065C1C832421470A135600389826D5308012AC327A3 ====

REM GENRE Rock
REM DATE 1972
REM DISCID 9008CA0A
REM COMMENT “ExactAudioCopy v1.0b4”
PERFORMER “Eagles”
TITLE “Eagles (1972)”
FILE “Eagles – Eagles (1972).flac” WAVE
TRACK 01 AUDIO
TITLE “Take It Easy”
PERFORMER “Eagles”
INDEX 01 00:00:00
TRACK 02 AUDIO
TITLE “Witchy Woman”
PERFORMER “Eagles”
INDEX 00 03:34:02
INDEX 01 03:35:45
TRACK 03 AUDIO
TITLE “Chug All Night”
PERFORMER “Eagles”
INDEX 00 07:47:40
INDEX 01 07:48:52
TRACK 04 AUDIO
TITLE “Most Of Us Are Sad”
PERFORMER “Eagles”
INDEX 00 11:04:37
INDEX 01 11:07:42
TRACK 05 AUDIO
TITLE “Nightingale”
PERFORMER “Eagles”
INDEX 00 14:44:62
INDEX 01 14:45:67
TRACK 06 AUDIO
TITLE “Train Leaves Here This Morning”
PERFORMER “Eagles”
INDEX 00 18:53:10
INDEX 01 18:54:20
TRACK 07 AUDIO
TITLE “Take The Devil”
PERFORMER “Eagles”
INDEX 00 23:05:72
INDEX 01 23:07:50
TRACK 08 AUDIO
TITLE “Earlybird”
PERFORMER “Eagles”
INDEX 00 27:10:32
INDEX 01 27:11:72
TRACK 09 AUDIO
TITLE “Peaceful Easy Feeling”
PERFORMER “Eagles”
INDEX 00 30:12:67
INDEX 01 30:14:27
TRACK 10 AUDIO
TITLE “Tryin'”
PERFORMER “Eagles”
INDEX 00 34:33:55
INDEX 01 34:35:25

Leave a Reply

Your email address will not be published. Required fields are marked *

This site uses Akismet to reduce spam. Learn how your comment data is processed.