Eagles – Desperado (Remastered)




Artist: Eagles
Year: 1973/2013
Genre: Rock
Notes: Discogs
Add. Notes: Remastered
Cover incl.: Yes
Encoder: FLAC
Bitrate: ~900 kBit/s (44.1 kHz/16 Bit/s)
Log & Cue incl.: Yes
Size: 292,33 MB
Password: “slam” (without ” “)


All Downloads/Hosters are compatible

Download 1
Turbobit.net
Rapidgator.net
UploadEver.com
KatFile.com
UsersDrive.com
Download 2
Turbobit.net
Rapidgator.net
UploadEver.com
KatFile.com
UsersDrive.com
Download 3
Turbobit.net
Rapidgator.net
UploadEver.com
KatFile.com
UsersDrive.com

Tracklist:

Desperado
2-1 - Doolin-Dalton - 3:27
2-2 - Twenty-One - 2:10
2-3 - Out Of Control - 3:05
2-4 - Tequila Sunrise - 2:54
2-5 - Desperado - 3:34
2-6 - Certain Kind Of Fool - 3:02
2-7 - Doolin-Dalton (Instrumental) - 0:48
2-8 - Outlaw Man - 3:34
2-9 - Saturday Night - 3:21
2-10 - Bitter Creek - 4:59
2-11 - Doolin-Dalton / Desperado (Reprise) - 4:51

EAC-Log, CUE-Sheed & NFO:

Click to open spoiler
Exact Audio Copy V1.0 beta 3 from 29. August 2011

EAC extraction logfile from 13. June 2016, 14:24

Eagles / Desperado

Used drive : PLEXTOR DVDR PX-L890SA Adapter: 5 ID: 1

Read mode : Secure
Utilize accurate stream : Yes
Defeat audio cache : Yes
Make use of C2 pointers : No

Read offset correction : 6
Overread into Lead-In and Lead-Out : No
Fill up missing offset samples with silence : Yes
Delete leading and trailing silent blocks : No
Null samples used in CRC calculations : Yes
Used interface : Native Win32 interface for Win NT & 2000

Used output format : User Defined Encoder
Selected bitrate : 768 kBit/s
Quality : High
Add ID3 tag : No
Command line compressor : C:\Program Files (x86)\Exact Audio Copy\Flac\flac.exe
Additional command line options : -V -8 -T “Date=%year%” -T “Genre=%genre%” %source%

TOC of the extracted CD

Track | Start | Length | Start sector | End sector
———————————————————
1 | 0:00.00 | 3:29.35 | 0 | 15709
2 | 3:29.35 | 2:10.17 | 15710 | 25476
3 | 5:39.52 | 3:05.05 | 25477 | 39356
4 | 8:44.57 | 2:54.03 | 39357 | 52409
5 | 11:38.60 | 3:37.05 | 52410 | 68689
6 | 15:15.65 | 3:02.02 | 68690 | 82341
7 | 18:17.67 | 0:47.68 | 82342 | 85934
8 | 19:05.60 | 3:34.67 | 85935 | 102051
9 | 22:40.52 | 3:20.40 | 102052 | 117091
10 | 26:01.17 | 5:03.20 | 117092 | 139836
11 | 31:04.37 | 4:50.68 | 139837 | 161654

Range status and errors

Selected range

Filename H:\MUSIC\Eagles\1973. Eagles – Desperado (Warner-Asylum 8122796746-2, EU)\Eagles – Desperado.wav

Peak level 99.8 %
Extraction speed 7.6 X
Range quality 100.0 %
Test CRC C8940147
Copy CRC C8940147
Copy OK

No errors occurred

AccurateRip summary

Track 1 accurately ripped (confidence 151) [E159ACB8] (AR v2)
Track 2 accurately ripped (confidence 150) [1D47E3F1] (AR v2)
Track 3 accurately ripped (confidence 149) [2EC26DFA] (AR v2)
Track 4 accurately ripped (confidence 153) [75D21052] (AR v2)
Track 5 accurately ripped (confidence 153) [82998DBF] (AR v2)
Track 6 accurately ripped (confidence 151) [0EA71B86] (AR v2)
Track 7 accurately ripped (confidence 151) [F6280B19] (AR v2)
Track 8 accurately ripped (confidence 150) [A0C564D5] (AR v2)
Track 9 accurately ripped (confidence 150) [219C96F7] (AR v2)
Track 10 accurately ripped (confidence 151) [B435EF47] (AR v2)
Track 11 accurately ripped (confidence 150) [35565A7F] (AR v2)

All tracks accurately ripped

End of status report

==== Log checksum B144875A8444479630F6F7FD6CA7355C342DCE2B75DF123F70F4DD42058A3F63 ====

REM GENRE Rock
REM DATE 1973
REM DISCID 83086B0B
REM COMMENT “ExactAudioCopy v1.0b3”
PERFORMER “Eagles”
TITLE “Desperado”
FILE “Eagles – Desperado.flac” WAVE
TRACK 01 AUDIO
TITLE “Doolin-Dalton”
PERFORMER “Eagles”
INDEX 01 00:00:00
TRACK 02 AUDIO
TITLE “Twenty-One”
PERFORMER “Eagles”
INDEX 00 03:27:65
INDEX 01 03:29:35
TRACK 03 AUDIO
TITLE “Out of Control”
PERFORMER “Eagles”
INDEX 01 05:39:52
TRACK 04 AUDIO
TITLE “Tequila Sunrise”
PERFORMER “Eagles”
INDEX 01 08:44:57
TRACK 05 AUDIO
TITLE “Desperado”
PERFORMER “Eagles”
INDEX 01 11:38:60
TRACK 06 AUDIO
TITLE “Certain Kind of Fool”
PERFORMER “Eagles”
INDEX 00 15:12:60
INDEX 01 15:15:65
TRACK 07 AUDIO
TITLE “Outlaw Man”
PERFORMER “Eagles”
INDEX 01 18:17:67
TRACK 08 AUDIO
TITLE “Saturday Night”
PERFORMER “Eagles”
INDEX 01 19:05:60
TRACK 09 AUDIO
TITLE “Bitter Creek”
PERFORMER “Eagles”
INDEX 00 22:39:05
INDEX 01 22:40:52
TRACK 10 AUDIO
TITLE “Doolin-Dalton (Reprise)”
PERFORMER “Eagles”
INDEX 01 26:01:17
TRACK 11 AUDIO
TITLE “Desperado (Reprise)”
PERFORMER “Eagles”
INDEX 00 31:00:67
INDEX 01 31:04:37

Leave a Reply

Your email address will not be published. Required fields are marked *

This site uses Akismet to reduce spam. Learn how your comment data is processed.