Eagles – Desperado (Remastered)




Artist: Eagles
Year: 1973/1999
Genre: Rock
Notes: Discogs
Add. Notes: Remastered
Cover incl.: Yes
Encoder: FLAC
Bitrate: ~900 kBit/s (44.1 kHz/16 Bit/s)
Log & Cue incl.: Yes
Size: 330,42 MB
Password: “slam” (without ” “)


All Downloads/Hosters are compatible

Download 1
Turbobit.net
Rapidgator.net
KatFile.com
UploadRar.com
Download 2
Turbobit.net
Rapidgator.net
KatFile.com
UploadRar.com

Tracklist:

1 - Doolin-Dalton - 3:26
2 - Twenty-One - 2:11
3 - Out Of Control - 3:04
4 - Tequila Sunrise - 2:52
5 - Desperado - 3:33
6 - Certain Kind Of Fool - 3:02
7 - Doolin-Dalton (Instrumental) - 0:48
8 - Outlaw Man - 3:34
9 - Saturday Night - 3:20
10 - Bitter Creek - 5:00
11 - Doolin-Dalton/Desperado (Reprise) - 4:50

EAC-Log, CUE-Sheed & NFO:

Click to open spoiler
Exact Audio Copy V1.1 from 23. June 2015

EAC extraction logfile from 9. June 2016, 18:42

Eagles / Desperado

Used drive : SONY BD RW BDX-S600U Adapter: 1 ID: 2

Read mode : Secure
Utilize accurate stream : Yes
Defeat audio cache : Yes
Make use of C2 pointers : No

Read offset correction : 48
Overread into Lead-In and Lead-Out : No
Fill up missing offset samples with silence : Yes
Delete leading and trailing silent blocks : No
Null samples used in CRC calculations : Yes
Used interface : Native Win32 interface for Win NT & 2000

Used output format : User Defined Encoder
Selected bitrate : 768 kBit/s
Quality : High
Add ID3 tag : No
Command line compressor : C:\Program Files (x86)\Exact Audio Copy\FLAC\FLAC.EXE
Additional command line options : -V -8 -T “Date=%year%” -T “Genre=%genre%” %source%

TOC of the extracted CD

Track | Start | Length | Start sector | End sector
———————————————————
1 | 0:00.32 | 3:29.13 | 32 | 15719
2 | 3:29.45 | 2:10.00 | 15720 | 25469
3 | 5:39.45 | 3:05.07 | 25470 | 39351
4 | 8:44.52 | 2:54.10 | 39352 | 52411
5 | 11:38.62 | 3:34.50 | 52412 | 68511
6 | 15:13.37 | 3:01.65 | 68512 | 82151
7 | 18:15.27 | 0:47.63 | 82152 | 85739
8 | 19:03.15 | 3:34.67 | 85740 | 101856
9 | 22:38.07 | 3:20.50 | 101857 | 116906
10 | 25:58.57 | 5:03.13 | 116907 | 139644
11 | 31:01.70 | 4:49.20 | 139645 | 161339

Range status and errors

Selected range

Filename D:\Eagles Discography\Studio\1973. Eagles – Desperado\1973. Eagles – Desperado (Asylum 5068-2,US)\Eagles – Desperado.wav

Peak level 100.0 %
Extraction speed 6.0 X
Range quality 100.0 %
Test CRC D5DDE1D7
Copy CRC D5DDE1D7
Copy OK

No errors occurred

AccurateRip summary

Track 1 accurately ripped (confidence 22) [D8FA5E27] (AR v2)
Track 2 accurately ripped (confidence 22) [20E84299] (AR v2)
Track 3 accurately ripped (confidence 23) [0CFADAB3] (AR v2)
Track 4 accurately ripped (confidence 21) [D427C087] (AR v2)
Track 5 accurately ripped (confidence 21) [C36CE364] (AR v2)
Track 6 accurately ripped (confidence 21) [DFC63579] (AR v2)
Track 7 accurately ripped (confidence 22) [AD937024] (AR v2)
Track 8 accurately ripped (confidence 20) [EA985FBC] (AR v2)
Track 9 accurately ripped (confidence 21) [564ACBBA] (AR v2)
Track 10 accurately ripped (confidence 22) [33842826] (AR v2)
Track 11 accurately ripped (confidence 22) [1E8CB440] (AR v2)

All tracks accurately ripped

End of status report

==== Log checksum EBEB74B20D14D4148F04FA30528FA17FD7CB61AE869F1D046FD0B331DAF04777 ====

REM GENRE Rock
REM DATE 1973
REM DISCID 7508670B
REM COMMENT “ExactAudioCopy v1.1”
PERFORMER “Eagles”
TITLE “Desperado”
FILE “Eagles – Desperado.flac” WAVE
TRACK 01 AUDIO
TITLE “Doolin-Dalton”
PERFORMER “Eagles”
INDEX 00 00:00:00
INDEX 01 00:00:32
TRACK 02 AUDIO
TITLE “Twenty-One”
PERFORMER “Eagles”
INDEX 00 03:28:45
INDEX 01 03:29:45
TRACK 03 AUDIO
TITLE “Out Of Control”
PERFORMER “Eagles”
INDEX 01 05:39:45
TRACK 04 AUDIO
TITLE “Tequila Sunrise”
PERFORMER “Eagles”
INDEX 01 08:44:52
TRACK 05 AUDIO
TITLE “Desperado”
PERFORMER “Eagles”
INDEX 01 11:38:62
TRACK 06 AUDIO
TITLE “Certain Kind Of Fool”
PERFORMER “Eagles”
INDEX 00 15:12:43
INDEX 01 15:13:37
TRACK 07 AUDIO
TITLE “Doolin-Dalton (Instrumental)”
PERFORMER “Eagles”
INDEX 01 18:15:27
TRACK 08 AUDIO
TITLE “Outlaw Man”
PERFORMER “Eagles”
INDEX 01 19:03:15
TRACK 09 AUDIO
TITLE “Saturday Night”
PERFORMER “Eagles”
INDEX 00 22:36:33
INDEX 01 22:38:07
TRACK 10 AUDIO
TITLE “Bitter Creek”
PERFORMER “Eagles”
INDEX 01 25:58:57
TRACK 11 AUDIO
TITLE “Desperado (Reprise)”
PERFORMER “Doolin-Dalton”
INDEX 00 30:59:50
INDEX 01 31:01:70


Leave a Reply

Your email address will not be published. Required fields are marked *

Enter the text from the image below
 

This site uses Akismet to reduce spam. Learn how your comment data is processed.