Eagles – Desperado




Artist: Eagles
Year: 1973/2000
Genre: Rock
Notes: Discogs
Add. Notes:
Cover incl.: Yes
Encoder: FLAC
Bitrate: ~900 kBit/s (44.1 kHz/16 Bit/s)
Log & Cue incl.: Yes
Size: 288,94 MB
Password: “slam” (without ” “)


All Downloads/Hosters are compatible

Download 1
Turbobit.net
Rapidgator.net
UploadEver.com
KatFile.com
UsersDrive.com
Download 2
Turbobit.net
Rapidgator.net
UploadEver.com
KatFile.com
UsersDrive.com
Download 3
Turbobit.net
Rapidgator.net
UploadEver.com
KatFile.com
UsersDrive.com

Tracklist:

1 Doolin-Dalton 3:26
2 Twenty-One 2:11
3 Out Of Control 3:04
4 Tequila Sunrise 2:52
5 Desperado 3:33
6 Certain Kind Of Fool 3:02
7 Doolin-Dalton (Instrumental) 0:48
8 Outlaw Man 3:34
9 Saturday Night 3:20
10 Bitter Creek 5:00
11 Doolin-Dalton/Desperado (Reprise) 4:50

EAC-Log, CUE-Sheed & NFO:

Click to open spoiler

Отчёт EAC об извлечении, выполненном 19. ноября 2011, 21:37

Eagles / Desperado

Дисковод: SONY CD-RW CRX230ED Adapter: 0 ID: 1

Режим чтения : Достоверность
Использование точного потока : Да
Отключение кэша аудио : Да
Использование указателей C2 : Нет

Коррекция смещения при чтении : 6
Способность читать области Lead-in и Lead-out : Нет
Заполнение пропущенных сэмплов тишиной : Да
Удаление блоков с тишиной в начале и конце : Нет
При вычислениях CRC использовались нулевые сэмплы : Да
Интерфейс : Установленный внешний ASPI-интерфейс

Выходной формат : Внутренние WAV-операции
Формат сэмплов : 44.100 Гц; 16 бит; стерео

TOC извлечённого CD

Трек | Старт | Длительность | Начальный сектор | Конечный сектор
———————————————————————
1 | 0:00.00 | 3:33.58 | 0 | 16032
2 | 3:33.58 | 2:09.70 | 16033 | 25777
3 | 5:43.53 | 3:05.25 | 25778 | 39677
4 | 8:49.03 | 2:54.12 | 39678 | 52739
5 | 11:43.15 | 3:37.15 | 52740 | 69029
6 | 15:20.30 | 3:01.55 | 69030 | 82659
7 | 18:22.10 | 0:47.70 | 82660 | 86254
8 | 19:10.05 | 3:35.15 | 86255 | 102394
9 | 22:45.20 | 3:20.33 | 102395 | 117427
10 | 26:05.53 | 5:03.35 | 117428 | 140187
11 | 31:09.13 | 4:51.02 | 140188 | 162014

Характеристики диапазона извлечения и сообщения об ошибках

Выбранный диапазон

Имя файла E:\MusicCD\Torrent\Eagles – Desperado\Eagles – Desperado.wav

Пиковый уровень 94.4 %
Скорость извлечения 6.9 X
Качество диапазона 100.0 %
CRC теста 86571464
CRC копии 86571464
Копирование… OK

Ошибок не произошло

AccurateRip: сводка

Трек 1 : извлечено точно (доверие 8) [7C97CCAA] (AR v2)
Трек 2 : извлечено точно (доверие 8) [4CE8385F] (AR v2)
Трек 3 : извлечено точно (доверие 8) [57C85BF3] (AR v2)
Трек 4 : извлечено точно (доверие 8) [CE7094F9] (AR v2)
Трек 5 : извлечено точно (доверие 8) [C33230CB] (AR v2)
Трек 6 : извлечено точно (доверие 8) [78B19D86] (AR v2)
Трек 7 : извлечено точно (доверие 8) [A42DC6B8] (AR v2)
Трек 8 : извлечено точно (доверие 8) [B518020C] (AR v2)
Трек 9 : извлечено точно (доверие 8) [24D22628] (AR v2)
Трек 10 : извлечено точно (доверие 8) [51D61272] (AR v2)
Трек 11 : извлечено точно (доверие 8) [6E8C155B] (AR v2)

Все треки извлечены точно

Конец отчёта

==== Контрольная сумма отчёта 8EE81F96B4B588DA839517C998ABC54543E3CA6F3FD97047BF816765C0B834D8 ====

REM GENRE Rock
REM DATE 1973
REM DISCID 7C08700B
REM COMMENT “ExactAudioCopy v1.0b3”
PERFORMER “Eagles”
TITLE “Desperado”
FILE “Eagles – Desperado.flac” WAVE
TRACK 01 AUDIO
TITLE “Doolin-Dalton”
PERFORMER “Eagles”
INDEX 01 00:00:00
TRACK 02 AUDIO
TITLE “Twenty-One”
PERFORMER “Eagles”
INDEX 00 03:29:35
INDEX 01 03:33:58
TRACK 03 AUDIO
TITLE “Out of Control”
PERFORMER “Eagles”
INDEX 01 05:43:53
TRACK 04 AUDIO
TITLE “Tequila Sunrise”
PERFORMER “Eagles”
INDEX 01 08:49:03
TRACK 05 AUDIO
TITLE “Desperado”
PERFORMER “Eagles”
INDEX 01 11:43:15
TRACK 06 AUDIO
TITLE “Certain Kind of Fool”
PERFORMER “Eagles”
INDEX 00 15:17:53
INDEX 01 15:20:30
TRACK 07 AUDIO
TITLE “Doolin-Dalton [Instrumental]”
PERFORMER “Eagles”
INDEX 01 18:22:10
TRACK 08 AUDIO
TITLE “Outlaw Man”
PERFORMER “Eagles”
INDEX 01 19:10:05
TRACK 09 AUDIO
TITLE “Saturday Night”
PERFORMER “Eagles”
INDEX 00 22:43:50
INDEX 01 22:45:20
TRACK 10 AUDIO
TITLE “Bitter Creek”
PERFORMER “Eagles”
INDEX 00 26:05:30
INDEX 01 26:05:53
TRACK 11 AUDIO
TITLE “Doolin-Dalton / Desperado (Reprise)”
PERFORMER “Eagles”
INDEX 00 31:05:40
INDEX 01 31:09:13


Leave a Reply

Your email address will not be published. Required fields are marked *

Enter the text from the image below
 

This site uses Akismet to reduce spam. Learn how your comment data is processed.