Dropkick Murphys – Going Out In Style




No Cover available

Artist: Dropkick Murphys
Year: 2011
Genre: Punk
Notes: Discogs
Add. Notes:
Watch Songs on: YouTube
Cover incl.: No
Encoder: FLAC
Bitrate: ~1000 kBit/s (44.1 kHz/16 Bit/s)
Log & Cue incl.: Yes
Size: 338 MB
Password: “slam” (without ” “)


All Downloads/Hosters are compatible

Download 1
KatFile.com
Turbobit.net
Rapidgator.net
Share-online.biz
Download 2
KatFile.com
Turbobit.net
Rapidgator.net
Share-online.biz

Tracklist:

Hang ‘Em High
Going Out in Style
The Hardest Mile
Cruel
Memorial Day
Climbing a Chair to Bed
Broken Hymns
Deeds Not Words
Take ‘Em Down
Sunday Hardcore Matinee
1953
Peg o’ My Heart
The Irish Rover

EAC-Log, CUE-Sheed & NFO:

Click to open spoiler
Exact Audio Copy V0.99 prebeta 5 from 4. May 2009

EAC extraction logfile from 28. February 2011, 21:52

Dropkick Murphys / Going Out In Style

Used drive : TSSTcorpCDDVDW SH-S223C Adapter: 2 ID: 0

Read mode : Secure
Utilize accurate stream : Yes
Defeat audio cache : Yes
Make use of C2 pointers : No

Read offset correction : 697
Overread into Lead-In and Lead-Out : No
Fill up missing offset samples with silence : Yes
Delete leading and trailing silent blocks : No
Null samples used in CRC calculations : Yes
Used interface : Native Win32 interface for Win NT & 2000
Gap handling : Appended to previous track

Used output format : User Defined Encoder
Selected bitrate : 192 kBit/s
Quality : High
Add ID3 tag : No
Command line compressor : C:\Program Files (x86)\FLAC\flac.exe
Additional command line options : -8 -V -T “ARTIST=%a” -T “TITLE=%t” -T “ALBUM=%g” -T “DATE=%y” -T “TRACKNUMBER=%n” -T “GENRE=%m” %s -o %d

TOC of the extracted CD

Track | Start | Length | Start sector | End sector
———————————————————
1 | 0:00.00 | 3:59.32 | 0 | 17956
2 | 3:59.32 | 4:08.44 | 17957 | 36600
3 | 8:08.01 | 3:26.28 | 36601 | 52078
4 | 11:34.29 | 4:21.62 | 52079 | 71715
5 | 15:56.16 | 2:59.01 | 71716 | 85141
6 | 18:55.17 | 2:59.46 | 85142 | 98612
7 | 21:54.63 | 5:03.25 | 98613 | 121362
8 | 26:58.13 | 3:41.25 | 121363 | 137962
9 | 30:39.38 | 2:11.20 | 137963 | 147807
10 | 32:50.58 | 2:43.01 | 147808 | 160033
11 | 35:33.59 | 4:14.04 | 160034 | 179087
12 | 39:47.63 | 2:20.52 | 179088 | 189639
13 | 42:08.40 | 3:39.18 | 189640 | 206082

Track 1

Filename G:\new personal rips\(01) Hang ‘Em High – Dropkick Murphys.wav

Pre-gap length 0:00:02.00

Peak level 100.0 %
Track quality 99.9 %
Test CRC 988A41C3
Copy CRC 988A41C3
Track not present in AccurateRip database
Copy OK

Track 2

Filename G:\new personal rips\(02) Going Out In Style – Dropkick Murphys.wav

Peak level 99.2 %
Track quality 100.0 %
Test CRC C92797CE
Copy CRC C92797CE
Track not present in AccurateRip database
Copy OK

Track 3

Filename G:\new personal rips\(03) The Hardest Mile – Dropkick Murphys.wav

Peak level 98.8 %
Track quality 100.0 %
Test CRC 7E2BBF55
Copy CRC 7E2BBF55
Track not present in AccurateRip database
Copy OK

Track 4

Filename G:\new personal rips\(04) Cruel – Dropkick Murphys.wav

Peak level 98.8 %
Track quality 100.0 %
Test CRC E25EC43C
Copy CRC E25EC43C
Track not present in AccurateRip database
Copy OK

Track 5

Filename G:\new personal rips\(05) Memorial Day – Dropkick Murphys.wav

Peak level 98.8 %
Track quality 100.0 %
Test CRC 00301929
Copy CRC 00301929
Track not present in AccurateRip database
Copy OK

Track 6

Filename G:\new personal rips\(06) Climbing A Chair To Bed – Dropkick Murphys.wav

Peak level 98.8 %
Track quality 100.0 %
Test CRC 1E99F2A6
Copy CRC 1E99F2A6
Track not present in AccurateRip database
Copy OK

Track 7

Filename G:\new personal rips\(07) Broken Hymns – Dropkick Murphys.wav

Peak level 98.8 %
Track quality 100.0 %
Test CRC 68549214
Copy CRC 68549214
Track not present in AccurateRip database
Copy OK

Track 8

Filename G:\new personal rips\(08) Deeds Not Words – Dropkick Murphys.wav

Peak level 98.8 %
Track quality 100.0 %
Test CRC 88B08EFB
Copy CRC 88B08EFB
Track not present in AccurateRip database
Copy OK

Track 9

Filename G:\new personal rips\(09) Take ‘Em down – Dropkick Murphys.wav

Peak level 98.8 %
Track quality 100.0 %
Test CRC D6599CF2
Copy CRC D6599CF2
Track not present in AccurateRip database
Copy OK

Track 10

Filename G:\new personal rips\(10) Sunday Hardcore Matinee – Dropkick Murphys.wav

Peak level 98.8 %
Track quality 99.9 %
Test CRC 9C8B8C1F
Copy CRC 9C8B8C1F
Track not present in AccurateRip database
Copy OK

Track 11

Filename G:\new personal rips\(11) 1953 – Dropkick Murphys.wav

Peak level 98.8 %
Track quality 100.0 %
Test CRC E453A9CF
Copy CRC E453A9CF
Track not present in AccurateRip database
Copy OK

Track 12

Filename G:\new personal rips\(12) Peg O’ My Heart – Dropkick Murphys.wav

Peak level 99.6 %
Track quality 100.0 %
Test CRC 7F472C6A
Copy CRC 7F472C6A
Track not present in AccurateRip database
Copy OK

Track 13

Filename G:\new personal rips\(13) The Irish Rover – Dropkick Murphys.wav

Peak level 98.8 %
Track quality 100.0 %
Test CRC 28CB290D
Copy CRC 28CB290D
Track not present in AccurateRip database
Copy OK

None of the tracks are present in the AccurateRip database

No errors occurred

End of status report

—————————–

REM GENRE “Punk Rock”
REM DATE 2011
REM DISCID AD0ABB0D
REM COMMENT “ExactAudioCopy v0.99pb5”
PERFORMER “Dropkick Murphys”
TITLE “Going Out In Style”
FILE “(01) Hang ‘Em High – Dropkick Murphys.wav” WAVE
TRACK 01 AUDIO
TITLE “Hang ‘Em High”
PERFORMER “Dropkick Murphys”
ISRC USK250700200
INDEX 01 00:00:00
FILE “(02) Going Out In Style – Dropkick Murphys.wav” WAVE
TRACK 02 AUDIO
TITLE “Going Out In Style”
PERFORMER “Dropkick Murphys”
ISRC USK250700201
INDEX 01 00:00:00
FILE “(03) The Hardest Mile – Dropkick Murphys.wav” WAVE
TRACK 03 AUDIO
TITLE “The Hardest Mile”
PERFORMER “Dropkick Murphys”
ISRC USK250700202
INDEX 01 00:00:00
FILE “(04) Cruel – Dropkick Murphys.wav” WAVE
TRACK 04 AUDIO
TITLE “Cruel”
PERFORMER “Dropkick Murphys”
ISRC USK250700203
INDEX 01 00:00:00
FILE “(05) Memorial Day – Dropkick Murphys.wav” WAVE
TRACK 05 AUDIO
TITLE “Memorial Day”
PERFORMER “Dropkick Murphys”
ISRC USK250700204
INDEX 01 00:00:00
FILE “(06) Climbing A Chair To Bed – Dropkick Murphys.wav” WAVE
TRACK 06 AUDIO
TITLE “Climbing A Chair To Bed”
PERFORMER “Dropkick Murphys”
ISRC USK250700205
INDEX 01 00:00:00
FILE “(07) Broken Hymns – Dropkick Murphys.wav” WAVE
TRACK 07 AUDIO
TITLE “Broken Hymns”
PERFORMER “Dropkick Murphys”
ISRC USK250700205
INDEX 01 00:00:00
FILE “(08) Deeds Not Words – Dropkick Murphys.wav” WAVE
TRACK 08 AUDIO
TITLE “Deeds Not Words”
PERFORMER “Dropkick Murphys”
ISRC USK250700207
INDEX 01 00:00:00
FILE “(09) Take ‘Em down – Dropkick Murphys.wav” WAVE
TRACK 09 AUDIO
TITLE “Take ‘Em down”
PERFORMER “Dropkick Murphys”
ISRC USK250700208
INDEX 01 00:00:00
FILE “(10) Sunday Hardcore Matinee – Dropkick Murphys.wav” WAVE
TRACK 10 AUDIO
TITLE “Sunday Hardcore Matinee”
PERFORMER “Dropkick Murphys”
ISRC USK250700210
INDEX 01 00:00:00
FILE “(11) 1953 – Dropkick Murphys.wav” WAVE
TRACK 11 AUDIO
TITLE “1953”
PERFORMER “Dropkick Murphys”
ISRC USK250700206
INDEX 01 00:00:00
FILE “(12) Peg O’ My Heart – Dropkick Murphys.wav” WAVE
TRACK 12 AUDIO
TITLE “Peg O’ My Heart”
PERFORMER “Dropkick Murphys”
ISRC USK250700211
INDEX 01 00:00:00
FILE “(13) The Irish Rover – Dropkick Murphys.wav” WAVE
TRACK 13 AUDIO
TITLE “The Irish Rover”
PERFORMER “Dropkick Murphys”
ISRC USK250700212
INDEX 01 00:00:00


Leave a Reply

Your email address will not be published. Required fields are marked *

This site uses Akismet to reduce spam. Learn how your comment data is processed.