Dream Theater – When Dream and Today Unite (Limited Edition)




[Total: 0    Average: 0/5]

Artist: Dream Theater
Year: 1995
Genre: Metal
Notes: Discogs
Add. Notes: Limited Edition
Cover incl.: Yes
Encoder: FLAC
Bitrate: ~1000 kBit/s (44.1 kHz/16 Bit/s)
Log & Cue incl.: Yes
Size: 490,71 MB
Password: “slam” (without ” “)


All Downloads/Hosters are compatible

Download 1
Share-online.biz
KatFile.com
Rapidgator.net
Download 2
Share-online.biz
KatFile.com
Rapidgator.net

Tracklist:

1 - A Fortune In Lies - 5:20
2 - Get Funky / Status Seeker - 5:27
3 - The Ytse Jam - 9:39
4 - The Killing Hand - 8:47
5 - Light Fuse And Get Away - 8:27
6 - Mission Impossible / Afterlife - 7:20
7 - To Set The Sun - 5:39
8 - Only A Matter Of Time / March Of The Tyrant - 8:25
9 - To Live Forever / Moonbubbles/Showdown - 12:06

EAC-Log, CUE-Sheed & NFO:

Click to open spoiler
Exact Audio Copy V1.0 beta 1 from 15. November 2010

EAC extraction logfile from 23. December 2010, 13:20

Dream Theater / When Dream and Today Unite

Used drive : PLEXTOR CD-R PX-240A Adapter: 1 ID: 1

Read mode : Secure
Utilize accurate stream : Yes
Defeat audio cache : Yes
Make use of C2 pointers : No

Read offset correction : 6
Overread into Lead-In and Lead-Out : No
Fill up missing offset samples with silence : Yes
Delete leading and trailing silent blocks : No
Null samples used in CRC calculations : Yes
Used interface : Installed external ASPI interface

Used output format : Internal WAV Routines
Sample format : 44.100 Hz; 16 Bit; Stereo

TOC of the extracted CD

Track | Start | Length | Start sector | End sector
———————————————————
1 | 0:00.30 | 5:20.32 | 30 | 24061
2 | 5:20.62 | 5:27.09 | 24062 | 48595
3 | 10:47.71 | 9:39.72 | 48596 | 92092
4 | 20:27.68 | 8:47.74 | 92093 | 131691
5 | 29:15.67 | 8:27.02 | 131692 | 169718
6 | 37:42.69 | 7:20.02 | 169719 | 202720
7 | 45:02.71 | 5:39.03 | 202721 | 228148
8 | 50:41.74 | 8:25.70 | 228149 | 266093
9 | 59:07.69 | 12:06.70 | 266094 | 320613

Range status and errors

Selected range

Filename Z:\data\mp3\Seeding\Dream Theater\Bootlegs\1995-When Dream and Today Unite\When Dream and Today Unite.wav

Peak level 99.6 %
Extraction speed 1.7 X
Range quality 100.0 %
Test CRC 421D36F3
Copy CRC 421D36F3
Copy OK

No errors occurred

AccurateRip summary

Track 1 accurately ripped (confidence 1) [BDC027C7]
Track 2 accurately ripped (confidence 1) [7EA26415]
Track 3 accurately ripped (confidence 1) [BF381C23]
Track 4 accurately ripped (confidence 1) [83A0E437]
Track 5 accurately ripped (confidence 1) [1B5D62DB]
Track 6 accurately ripped (confidence 1) [F14139B2]
Track 7 accurately ripped (confidence 1) [37D33AF0]
Track 8 accurately ripped (confidence 1) [281BD24A]
Track 9 accurately ripped (confidence 1) [772F28B6]

All tracks accurately ripped

End of status report

REM GENRE “Progressive Metal”
REM DATE 1995
REM DISCID 7810B209
REM COMMENT “ExactAudioCopy v1.0b1”
CATALOG 0000000000000
PERFORMER “Dream Theater”
TITLE “When Dream And Today Unite”
FILE “When Dream and Today Unite.wav” WAVE
TRACK 01 AUDIO
TITLE “A Fortune in Lies”
PERFORMER “Dream Theater”
INDEX 00 00:00:00
INDEX 01 00:00:30
TRACK 02 AUDIO
TITLE “Get Funky/Status Seeker”
PERFORMER “Dream Theater”
INDEX 01 05:20:62
TRACK 03 AUDIO
TITLE “The Ytsejam”
PERFORMER “Dream Theater”
INDEX 01 10:47:71
TRACK 04 AUDIO
TITLE “The Killing Hand”
PERFORMER “Dream Theater”
INDEX 01 20:27:68
TRACK 05 AUDIO
TITLE “Light Fuse and Get Away”
PERFORMER “Dream Theater”
INDEX 01 29:15:67
TRACK 06 AUDIO
TITLE “Mission Impossible/Afterlife”
PERFORMER “Dream Theater”
INDEX 01 37:42:69
TRACK 07 AUDIO
TITLE “The Ones Who Help to Set the Sun”
PERFORMER “Dream Theater”
INDEX 01 45:02:71
TRACK 08 AUDIO
TITLE “Only a Matter of Time/March of the Tyrant”
PERFORMER “Dream Theater”
INDEX 01 50:41:74
TRACK 09 AUDIO
TITLE “To Live Forever/Moonbubbles/Showdown”
PERFORMER “Dream Theater”
INDEX 01 59:07:69


Spread the Download

Leave a Reply

Your email address will not be published. Required fields are marked *

Enter the text from the image below
 

This site uses Akismet to reduce spam. Learn how your comment data is processed.