Dream Theater – When Dream And Day Unite (Remastered)




Artist: Dream Theater
Year: 1989/2002
Genre: Metal
Notes: Discogs
Add. Notes: Remastered
Cover incl.: Yes
Encoder: FLAC
Bitrate: ~900 kBit/s (44.1 kHz/16 Bit/s)
Log & Cue incl.: Yes
Size: 351 MB
Password: “slam” (without ” “)


All Downloads/Hosters are compatible

Download 1
KatFile.com
Rapidgator.net
Turbobit.net
FileFactory.com
Download 2
KatFile.com
Rapidgator.net
Turbobit.net
FileFactory.com

Tracklist:

1 - A Fortune In Lies - 5:13
2 - Status Seeker - 4:18
3 - Ytse Jam - 5:46
4 - The Killing Hand - 8:42
5 - Light Fuse And Get Away - 7:24
6 - Afterlife - 5:27
7 - The Ones Who Help To Set The 
Sun - 8:05
8 - Only A Matter Of Time - 6:36

EAC-Log, CUE-Sheed & NFO:

Click to open spoiler
Exact Audio Copy V1.0 beta 1 from 15. November 2010

EAC extraction logfile from 19. December 2010, 18:17

Dream Theater / When Dream And Day Unite (Remaster)

Used drive : PLEXTOR CD-R PX-240A Adapter: 1 ID: 1

Read mode : Secure
Utilize accurate stream : Yes
Defeat audio cache : Yes
Make use of C2 pointers : No

Read offset correction : 6
Overread into Lead-In and Lead-Out : No
Fill up missing offset samples with silence : Yes
Delete leading and trailing silent blocks : No
Null samples used in CRC calculations : Yes
Used interface : Installed external ASPI interface

Used output format : Internal WAV Routines
Sample format : 44.100 Hz; 16 Bit; Stereo

TOC of the extracted CD

Track | Start | Length | Start sector | End sector
———————————————————
1 | 0:00.00 | 5:12.24 | 0 | 23423
2 | 5:12.24 | 4:17.37 | 23424 | 42735
3 | 9:29.61 | 5:43.28 | 42736 | 68488
4 | 15:13.14 | 8:42.22 | 68489 | 107660
5 | 23:55.36 | 7:23.62 | 107661 | 140947
6 | 31:19.23 | 5:27.22 | 140948 | 165494
7 | 36:46.45 | 8:04.62 | 165495 | 201856
8 | 44:51.32 | 6:37.39 | 201857 | 231670

Range status and errors

Selected range

Filename Z:\data\mp3\Seeding\Dream Theater\Albums\2002-When Dream And Day Unite Remaster\wdadurem.wav

Peak level 100.0 %
Extraction speed 1.0 X
Range quality 100.0 %
Test CRC 9205094F
Copy CRC 9205094F
Copy OK

No errors occurred

AccurateRip summary

Track 1 accurately ripped (confidence 26) [4A0DC4EF]
Track 2 accurately ripped (confidence 26) [85A687D4]
Track 3 accurately ripped (confidence 26) [657BDE4D]
Track 4 accurately ripped (confidence 26) [9BA4B89B]
Track 5 accurately ripped (confidence 26) [73EFE7D4]
Track 6 accurately ripped (confidence 26) [46796780]
Track 7 accurately ripped (confidence 26) [89341C53]
Track 8 accurately ripped (confidence 26) [613AC085]

All tracks accurately ripped

End of status report

REM GENRE “Progressive Metal”
REM DATE 2002
REM DISCID 670C1008
REM COMMENT “ExactAudioCopy v1.0b1”
PERFORMER “Dream Theater”
TITLE “When Dream And Day Unite (Remaster)”
FILE “wdadurem.wav” WAVE
TRACK 01 AUDIO
TITLE “A Fortune In Lies”
PERFORMER “Dream Theater”
ISRC USMC18927948
INDEX 01 00:00:00
TRACK 02 AUDIO
TITLE “Status Seeker”
PERFORMER “Dream Theater”
ISRC USMC18927949
INDEX 01 05:12:24
TRACK 03 AUDIO
TITLE “Ytse Jam”
PERFORMER “Dream Theater”
ISRC USMC18927950
INDEX 01 09:29:61
TRACK 04 AUDIO
TITLE “The Killing Hand”
PERFORMER “Dream Theater”
ISRC USMC18927951
INDEX 01 15:13:14
TRACK 05 AUDIO
TITLE “Light Fuse And Get Away”
PERFORMER “Dream Theater”
ISRC USMC18927952
INDEX 01 23:55:36
TRACK 06 AUDIO
TITLE “Afterlife”
PERFORMER “Dream Theater”
ISRC USMC18927953
INDEX 01 31:19:23
TRACK 07 AUDIO
TITLE “The Ones Who Help To Set The Sun”
PERFORMER “Dream Theater”
ISRC USMC18927954
INDEX 01 36:46:45
TRACK 08 AUDIO
TITLE “Only A Matter Of Time”
PERFORMER “Dream Theater”
ISRC USMC18927955
INDEX 01 44:51:32


Leave a Reply

Your email address will not be published. Required fields are marked *

Enter the text from the image below
 

This site uses Akismet to reduce spam. Learn how your comment data is processed.