Dream Theater – When Dream And Day Unite (Japanese Edition)




Artist: Dream Theater
Year: 1989/2013
Genre: Metal
Notes: Discogs
Add. Notes: Japanese Edition
Cover incl.: Yes
Encoder: FLAC
Bitrate: ~1000 kBit/s (44.1 kHz/16 Bit/s)
Log & Cue incl.: Yes
Size: 500 MB
Password: “slam” (without ” “)


All Downloads/Hosters are compatible

Download 1
KatFile.com
Turbobit.net
FileFactory.com
Rapidgator.net
Download 2
KatFile.com
Turbobit.net
FileFactory.com
Rapidgator.net

Tracklist:

1 - A Fortune In Lies - 5:12
2 - Status Seeker - 4:17
3 - The Ytse Jam - 5:47
4 - The Killing Hand - 8:43
5 - Light Fuse And Get Away - 7:23
6 - Afterlife - 5:27
7 - The Ones Who Help To Set The 
Sun - 8:05
8 - Only A Matter Of Time - 6:36

EAC-Log, CUE-Sheed & NFO:

Click to open spoiler
Exact Audio Copy V1.0 beta 3 from 29. August 2011

EAC extraction logfile from 10. January 2014, 13:44

Dream Theater / When Dream And Day Unite (Japan HMCD 2013)

Used drive : PLEXTOR CD-R PX-240A Adapter: 0 ID: 0

Read mode : Secure
Utilize accurate stream : Yes
Defeat audio cache : Yes
Make use of C2 pointers : No

Read offset correction : 6
Overread into Lead-In and Lead-Out : No
Fill up missing offset samples with silence : Yes
Delete leading and trailing silent blocks : No
Null samples used in CRC calculations : Yes
Used interface : Installed external ASPI interface

Used output format : Internal WAV Routines
Sample format : 44.100 Hz; 16 Bit; Stereo

TOC of the extracted CD

Track | Start | Length | Start sector | End sector
———————————————————
1 | 0:00.00 | 5:12.11 | 0 | 23410
2 | 5:12.11 | 4:17.18 | 23411 | 42703
3 | 9:29.29 | 5:46.63 | 42704 | 68716
4 | 15:16.17 | 8:43.36 | 68717 | 107977
5 | 23:59.53 | 7:23.26 | 107978 | 141228
6 | 31:23.04 | 5:27.18 | 141229 | 165771
7 | 36:50.22 | 8:04.50 | 165772 | 202121
8 | 44:54.72 | 6:36.26 | 202122 | 231847

Range status and errors

Selected range

Filename Z:\data\hexonut\Seeding\Dream Theater\Albums\1989-When Dream And Day Unite\2013-USM Japan [Japan, UICY-75604]\When Dream And Day Unite (Japan HMCD 2013).wav

Peak level 100.0 %
Extraction speed 8.4 X
Range quality 100.0 %
Test CRC 52935E63
Copy CRC 52935E63
Copy OK

No errors occurred

AccurateRip summary

Track 1 accurately ripped (confidence 1) [AA397E7D] (AR v2)
Track 2 accurately ripped (confidence 1) [0CFEFF93] (AR v2)
Track 3 accurately ripped (confidence 1) [2C602918] (AR v2)
Track 4 accurately ripped (confidence 1) [913E191A] (AR v2)
Track 5 accurately ripped (confidence 1) [AD70BFCA] (AR v2)
Track 6 accurately ripped (confidence 1) [FFD2C32D] (AR v2)
Track 7 accurately ripped (confidence 1) [9A327E94] (AR v2)
Track 8 accurately ripped (confidence 1) [E75C09DE] (AR v2)

All tracks accurately ripped

End of status report

==== Log checksum 5720585228A14F44C99EB5510B25E95732A09FE9759E7F68F9620095621186C4 ====

REM GENRE “Progressive Metal”
REM DATE 1989
REM DISCID 670C1308
REM COMMENT “ExactAudioCopy v1.0b3”
CATALOG 0076742225926
PERFORMER “Dream Theater”
TITLE “When Dream And Day Unite (Japan HMCD 2013)”
FILE “When Dream And Day Unite (Japan HMCD 2013).flac” WAVE
TRACK 01 AUDIO
TITLE “A Fortune In Lies ”
PERFORMER “Dream Theater”
ISRC USMC18927948
INDEX 01 00:00:00
TRACK 02 AUDIO
TITLE “Status Seeker ”
PERFORMER “Dream Theater”
ISRC USMC18927949
INDEX 00 05:11:68
INDEX 01 05:12:11
TRACK 03 AUDIO
TITLE “Ytse Jam (Instrumental)”
PERFORMER “Dream Theater”
ISRC USMC18927950
INDEX 01 09:29:29
TRACK 04 AUDIO
TITLE “The Killing Hand ”
PERFORMER “Dream Theater”
ISRC USMC18927951
INDEX 00 15:11:22
INDEX 01 15:16:17
TRACK 05 AUDIO
TITLE “Light Fuse And Get Away ”
PERFORMER “Dream Theater”
ISRC USMC18927952
INDEX 00 23:57:16
INDEX 01 23:59:53
TRACK 06 AUDIO
TITLE “Afterlife ”
PERFORMER “Dream Theater”
ISRC USMC18927953
INDEX 00 31:22:62
INDEX 01 31:23:04
TRACK 07 AUDIO
TITLE “The Ones Who Help To Set The Sun ”
PERFORMER “Dream Theater”
ISRC USMC18927954
INDEX 01 36:50:22
TRACK 08 AUDIO
TITLE “Only A Matter Of Time ”
PERFORMER “Dream Theater”
ISRC USMC18927955
INDEX 01 44:54:72


Leave a Reply

Your email address will not be published. Required fields are marked *

Enter the text from the image below
 

This site uses Akismet to reduce spam. Learn how your comment data is processed.