Dream Theater – When Dream And Day Reunite




No Cover available

Artist: Dream Theater
Year: 2005
Genre: Metal
Notes: Discogs
Add. Notes:
Watch Songs on: YouTube
Cover incl.: Yes
Encoder: FLAC
Bitrate: ~900 kBit/s (44.1 kHz/16 Bit/s)
Log & Cue incl.: Yes/Yes
Size: 531,3 MB
Password: “slam” (without ” “)


All Downloads/Hosters are compatible

Download 1
KatFile.com
Turbobit.net
Rapidgator.net
DoUploads.net
Download 2
KatFile.com
Turbobit.net
Rapidgator.net
DoUploads.net

Tracklist:

1 A Fortune In Lies 5:23
2 Status Seeker 4:38
3 Ytse Jam 6:10
4 The Killing Hand 12:30
5 Light Fuse And Get Away 8:29
6 Afterlife 5:45
7 The Ones Who Help To Set The Sun 7:53
8 Only A Matter Of Time 7:34

Bonus Encore
9 To Live Forever 4:54
10 Metropolis 14:20

EAC-Log, CUE-Sheed & NFO:

Click to open spoiler
Exact Audio Copy V1.0 beta 1 from 15. November 2010

EAC extraction logfile from 24. December 2010, 17:28

Dream Theater / When Dream And Day Reunite

Used drive : LITE-ON DVDRW LH-20A1L Adapter: 4 ID: 0

Read mode : Secure
Utilize accurate stream : Yes
Defeat audio cache : Yes
Make use of C2 pointers : No

Read offset correction : 6
Overread into Lead-In and Lead-Out : No
Fill up missing offset samples with silence : Yes
Delete leading and trailing silent blocks : No
Null samples used in CRC calculations : Yes
Used interface : Installed external ASPI interface

Used output format : Internal WAV Routines
Sample format : 44.100 Hz; 16 Bit; Stereo

TOC of the extracted CD

Track | Start | Length | Start sector | End sector
———————————————————
1 | 0:00.00 | 5:23.14 | 0 | 24238
2 | 5:23.14 | 4:38.35 | 24239 | 45123
3 | 10:01.49 | 6:10.67 | 45124 | 72940
4 | 16:12.41 | 12:30.30 | 72941 | 129220
5 | 28:42.71 | 8:29.48 | 129221 | 167443
6 | 37:12.44 | 5:45.57 | 167444 | 193375
7 | 42:58.26 | 7:53.51 | 193376 | 228901
8 | 50:52.02 | 7:34.00 | 228902 | 262951
9 | 58:26.02 | 4:54.62 | 262952 | 285063
10 | 63:20.64 | 14:20.31 | 285064 | 349594

Range status and errors

Selected range

Filename Z:\data\mp3\Seeding\Dream Theater\Official Bootlegs\2005-When Dream And Day Reunite\reunite.wav

Peak level 78.7 %
Extraction speed 0.8 X
Range quality 100.0 %
Test CRC 615EA578
Copy CRC 615EA578
Copy OK

No errors occurred

AccurateRip summary

Track 1 accurately ripped (confidence 2) [B32D22E3]
Track 2 accurately ripped (confidence 2) [9B3DCC38]
Track 3 accurately ripped (confidence 2) [D58CD313]
Track 4 accurately ripped (confidence 2) [A4DE5CED]
Track 5 accurately ripped (confidence 2) [0F3EE40F]
Track 6 accurately ripped (confidence 2) [8C9F67FB]
Track 7 accurately ripped (confidence 2) [D54DF7D6]
Track 8 accurately ripped (confidence 2) [1DC65E4E]
Track 9 accurately ripped (confidence 2) [9F32B7FD]
Track 10 accurately ripped (confidence 2) [85E3C6EE]

All tracks accurately ripped

End of status report

REM GENRE “Progressive Metal”
REM DATE 2005
REM DISCID 7A12350A
REM COMMENT “ExactAudioCopy v1.0b1”
PERFORMER “Dream Theater”
TITLE “Official Bootleg: When Dream And Day Reunite”
FILE “reunite.flac” WAVE
TRACK 01 AUDIO
TITLE “A Fortune In Lies”
PERFORMER “Dream Theater”
INDEX 01 00:00:00
TRACK 02 AUDIO
TITLE “Status Seeker”
PERFORMER “Dream Theater”
INDEX 01 05:23:14
TRACK 03 AUDIO
TITLE “Ytse Jam”
PERFORMER “Dream Theater”
INDEX 01 10:01:49
TRACK 04 AUDIO
TITLE “The Killing Hand”
PERFORMER “Dream Theater”
INDEX 01 16:12:41
TRACK 05 AUDIO
TITLE “Light Fuse And Get Away”
PERFORMER “Dream Theater”
INDEX 01 28:42:71
TRACK 06 AUDIO
TITLE “Afterlife”
PERFORMER “Dream Theater”
INDEX 01 37:12:44
TRACK 07 AUDIO
TITLE “The Ones Who Help To Set The Sun”
PERFORMER “Dream Theater”
INDEX 01 42:58:26
TRACK 08 AUDIO
TITLE “Only A Matter Of Time”
PERFORMER “Dream Theater”
INDEX 01 50:52:02
TRACK 09 AUDIO
TITLE “To Live Forever”
PERFORMER “Dream Theater”
INDEX 01 58:26:02
TRACK 10 AUDIO
TITLE “Metropolis”
PERFORMER “Dream Theater”
INDEX 01 63:20:64


0

Publication author

offline 4 days

Chaos

3
Comments: 4Publics: 3565Registration: 02-02-2019
Spread the Download

Leave a Reply

Your email address will not be published. Required fields are marked *

Enter the text from the image below
 

This site uses Akismet to reduce spam. Learn how your comment data is processed.