Dream Theater – Uncovered (Remastered)




Artist: Dream Theater
Year: 1995
Genre: Metal
Notes: Discogs
Add. Notes: Remastered
Cover incl.: Yes
Encoder: FLAC
Bitrate: ~800 kBit/s (44.1 kHz/16 Bit/s)
Log & Cue incl.: Yes
Size: 707,54 MB
Password: “slam” (without ” “)


All Downloads/Hosters are compatible

Download 1
Turbobit.net
KatFile.com
Rapidgator.net
Download 2
Turbobit.net
KatFile.com
Rapidgator.net

Tracklist:

1 - Medley: a) Funeral for a friend - b) Love lies bleeding - 
10:32
2 - Perfect Strangers - 6:01
3 - Red Hill Mining Town - 6:55
4 - Medley: The Rover - 8:13
5 - Tears - 4:04
6 - Damace Inc. - 6:00
7 - Happiness Is A Warm Gun - 3:54
8 - Easter - 7:18
9 - Winter - 2:34
10 - In The Dead Of Night - 5:54
11 - Medley: Machine Messiah - 14:52
12 - Medley: In the Flesh - 12:00
13 - Space-dye Vest - 7:07
14 - Carry That Weight - 6:16
15 - The Night - 4:15
16 - Past (into the sun) - 6:24
17 - Mission Impossible - 1:18
18 - To Live Forever - 5:00
19 - Indulge In Reverie - 5:04
20 - A Late Summer's Rain / Schizophrenia - 7:50

EAC-Log, CUE-Sheed & NFO:

Click to open spoiler
Exact Audio Copy V1.0 beta 1 from 15. November 2010

EAC extraction logfile from 24. December 2010, 17:47

Dream Theater / Uncovered (disc 1)

Used drive : LITE-ON DVDRW LH-20A1L Adapter: 4 ID: 0

Read mode : Secure
Utilize accurate stream : Yes
Defeat audio cache : Yes
Make use of C2 pointers : No

Read offset correction : 6
Overread into Lead-In and Lead-Out : No
Fill up missing offset samples with silence : Yes
Delete leading and trailing silent blocks : No
Null samples used in CRC calculations : Yes
Used interface : Installed external ASPI interface

Used output format : Internal WAV Routines
Sample format : 44.100 Hz; 16 Bit; Stereo

TOC of the extracted CD

Track | Start | Length | Start sector | End sector
———————————————————
1 | 0:00.00 | 10:32.72 | 0 | 47471
2 | 10:32.72 | 5:49.20 | 47472 | 73666
3 | 16:22.17 | 6:43.63 | 73667 | 103954
4 | 23:06.05 | 7:57.30 | 103955 | 139759
5 | 31:03.35 | 4:03.37 | 139760 | 158021
6 | 35:06.72 | 5:58.00 | 158022 | 184871
7 | 41:04.72 | 2:53.38 | 184872 | 197884
8 | 43:58.35 | 7:01.52 | 197885 | 229511
9 | 51:00.12 | 2:32.58 | 229512 | 240969
10 | 53:32.70 | 5:29.47 | 240970 | 265691

Range status and errors

Selected range

Filename Z:\data\mp3\Seeding\Dream Theater\Bootlegs\1996-Uncovered\uncovered1.wav

Peak level 97.8 %
Extraction speed 0.4 X
Range quality 100.0 %
Test CRC 97E01D07
Copy CRC 97E01D07
Copy OK

No errors occurred

AccurateRip summary

Track 1 accurately ripped (confidence 3) [05E199B2]
Track 2 accurately ripped (confidence 3) [C9E5D1A3]
Track 3 accurately ripped (confidence 3) [2BC76AC0]
Track 4 accurately ripped (confidence 3) [9262A7C0]
Track 5 accurately ripped (confidence 3) [A1B9AD56]
Track 6 accurately ripped (confidence 3) [E5D627A3]
Track 7 accurately ripped (confidence 3) [A6BAB2FA]
Track 8 accurately ripped (confidence 3) [2D096382]
Track 9 accurately ripped (confidence 3) [296E43BF]
Track 10 cannot be verified as accurate (confidence 2) [157A2FD8], AccurateRip returned [EC00A112]

9 track(s) accurately ripped
1 track(s) could not be verified as accurate

Some tracks could not be verified as accurate

End of status report

Exact Audio Copy V1.0 beta 1 from 15. November 2010

EAC extraction logfile from 24. December 2010, 17:08

Dream Theater / Uncovered (disc 2)

Used drive : HL-DT-STDVD-ROM GDR8082N Adapter: 1 ID: 0

Read mode : Secure
Utilize accurate stream : Yes
Defeat audio cache : Yes
Make use of C2 pointers : No

Read offset correction : 102
Overread into Lead-In and Lead-Out : No
Fill up missing offset samples with silence : Yes
Delete leading and trailing silent blocks : No
Null samples used in CRC calculations : Yes
Used interface : Installed external ASPI interface

Used output format : Internal WAV Routines
Sample format : 44.100 Hz; 16 Bit; Stereo

TOC of the extracted CD

Track | Start | Length | Start sector | End sector
———————————————————
1 | 0:00.00 | 14:11.67 | 0 | 63891
2 | 14:11.67 | 12:08.48 | 63892 | 118539
3 | 26:20.40 | 7:03.52 | 118540 | 150316
4 | 33:24.17 | 6:15.03 | 150317 | 178444
5 | 39:39.20 | 4:12.05 | 178445 | 197349
6 | 43:51.25 | 6:23.00 | 197350 | 226074
7 | 50:14.25 | 1:18.50 | 226075 | 231974
8 | 51:33.00 | 4:58.00 | 231975 | 254324
9 | 56:31.00 | 4:57.12 | 254325 | 276611
10 | 61:28.12 | 7:50.38 | 276612 | 311899

Range status and errors

Selected range

Filename Z:\data\mp3\Seeding\Dream Theater\Bootlegs\1996-Uncovered\uncovered2.wav

Peak level 53.3 %
Extraction speed 0.3 X
Range quality 100.0 %
Test CRC 8D1EF989
Copy CRC 8D1EF989
Copy OK

No errors occurred

AccurateRip summary

Track 1 accurately ripped (confidence 3) [8DADC680]
Track 2 accurately ripped (confidence 3) [D62A0109]
Track 3 accurately ripped (confidence 2) [247CD02C]
Track 4 accurately ripped (confidence 2) [D33D41C7]
Track 5 accurately ripped (confidence 3) [67639A15]
Track 6 accurately ripped (confidence 3) [F5B8C177]
Track 7 accurately ripped (confidence 3) [3118AA27]
Track 8 accurately ripped (confidence 3) [2560E3FB]
Track 9 accurately ripped (confidence 3) [9D335665]
Track 10 accurately ripped (confidence 3) [6990AD9D]

All tracks accurately ripped

End of status report

REM GENRE “Progressive Metal”
REM DATE 1996
REM DISCID 8A0DD60A
REM COMMENT “ExactAudioCopy v1.0b1”
PERFORMER “Dream Theater”
TITLE “Uncovered CD 1”
FILE “uncovered1.wav” WAVE
TRACK 01 AUDIO
TITLE “Medley : Funeral for a friend – Love lies bleeding”
PERFORMER “Dream Theater”
INDEX 01 00:00:00
TRACK 02 AUDIO
TITLE “Perfect Strangers”
PERFORMER “Dream Theater”
INDEX 01 10:32:72
TRACK 03 AUDIO
TITLE “Red Hill Mining Town”
PERFORMER “Dream Theater”
INDEX 01 16:22:17
TRACK 04 AUDIO
TITLE “Medley : The rover – Achilles’ last stand – The song remains the same”
PERFORMER “Dream Theater”
INDEX 01 23:06:05
TRACK 05 AUDIO
TITLE “Tears”
PERFORMER “Dream Theater”
INDEX 01 31:03:35
TRACK 06 AUDIO
TITLE “Damage Inc. (W. Barney Greenway on vocals)”
PERFORMER “Dream Theater”
INDEX 01 35:06:72
TRACK 07 AUDIO
TITLE “Happiness Is A Warm Gun (W.S. Hogarth on vocals)”
PERFORMER “Dream Theater”
INDEX 01 41:04:72
TRACK 08 AUDIO
TITLE “Easter (W.S. Hogarth on vocals & S. Rothery on guitar)”
PERFORMER “Dream Theater”
INDEX 01 43:58:35
TRACK 09 AUDIO
TITLE “Winter”
PERFORMER “Dream Theater”
INDEX 01 51:00:12
TRACK 10 AUDIO
TITLE “In The Dead Of Night”
PERFORMER “Dream Theater”
INDEX 01 53:32:70

REM GENRE “Progressive Metal”
REM DATE 1996
REM DISCID 85103E0A
REM COMMENT “ExactAudioCopy v1.0b1”
PERFORMER “Dream Theater”
TITLE “Uncovered CD 2”
FILE “uncovered2.wav” WAVE
TRACK 01 AUDIO
TITLE “Medley : (W.S. Howe on guitar) Machine messiah – Heart on the sunrise – Close…”
PERFORMER “Dream Theater”
INDEX 01 00:00:00
TRACK 02 AUDIO
TITLE “Medley : In the Flesh – Carry on wayward son – Bohemian rhapsody – Lovin’ tou…”
PERFORMER “Dream Theater”
INDEX 01 14:11:67
TRACK 03 AUDIO
TITLE “Space – Dye Vest”
PERFORMER “Dream Theater”
INDEX 01 26:20:40
TRACK 04 AUDIO
TITLE “Carry That Weight”
PERFORMER “Dream Theater”
INDEX 01 33:24:17
TRACK 05 AUDIO
TITLE “The Night”
PERFORMER “Dream Theater”
INDEX 00 39:37:62
INDEX 01 39:39:20
TRACK 06 AUDIO
TITLE “Past (into the sun)”
PERFORMER “Dream Theater”
INDEX 00 43:49:40
INDEX 01 43:51:25
TRACK 07 AUDIO
TITLE “Mission Impossible”
PERFORMER “Dream Theater”
INDEX 00 50:11:40
INDEX 01 50:14:25
TRACK 08 AUDIO
TITLE “To Live Forever”
PERFORMER “Dream Theater”
INDEX 00 51:31:32
INDEX 01 51:33:00
TRACK 09 AUDIO
TITLE “Indulge In Reverie”
PERFORMER “Dream Theater”
INDEX 00 56:27:72
INDEX 01 56:31:00
TRACK 10 AUDIO
TITLE “A Late Summer’s Rain Schizophrenia”
PERFORMER “Dream Theater”
INDEX 00 61:25:12
INDEX 01 61:28:12


Leave a Reply

Your email address will not be published. Required fields are marked *

Enter the text from the image below
 

This site uses Akismet to reduce spam. Learn how your comment data is processed.