Dream Theater – Uncovered 2003-2005




Artist: Dream Theater
Year: 2009
Genre: Metal
Notes: Discogs
Add. Notes:
Cover incl.: Yes
Encoder: FLAC
Bitrate: ~900 kBit/s (44.1 kHz/16 Bit/s)
Log & Cue incl.: Yes
Size: 437,5 MB
Password: “slam” (without ” “)


All Downloads/Hosters are compatible

Download 1
Turbobit.net
Rapidgator.net
KatFile.com
UploadRar.com
Download 2
Turbobit.net
Rapidgator.net
KatFile.com
UploadRar.com

Tracklist:

1 - Death On Two Legs - 3:49
2 - Heart Of The Sunrise - 10:29
3 - Heaven And Hell - 6:19
4 - Paradox - 3:43
5 - Mother Father - 5:32
6 - Machine Messiah - 3:19
7 - Since I've Been Loving You - 6:49
8 - Diary Of A Madman - 5:59
9 - Cemetery Gates - 8:19
10 - Won't Get Fooled Again - 10:06

EAC-Log, CUE-Sheed & NFO:

Click to open spoiler
Exact Audio Copy V1.0 beta 1 from 15. November 2010

EAC extraction logfile from 24. December 2010, 14:43

Dream Theater / Uncovered 2003-2005

Used drive : PLEXTOR CD-R PX-240A Adapter: 1 ID: 1

Read mode : Secure
Utilize accurate stream : Yes
Defeat audio cache : Yes
Make use of C2 pointers : No

Read offset correction : 6
Overread into Lead-In and Lead-Out : No
Fill up missing offset samples with silence : Yes
Delete leading and trailing silent blocks : No
Null samples used in CRC calculations : Yes
Used interface : Installed external ASPI interface

Used output format : Internal WAV Routines
Sample format : 44.100 Hz; 16 Bit; Stereo

TOC of the extracted CD

Track | Start | Length | Start sector | End sector
———————————————————
1 | 0:00.00 | 3:48.56 | 0 | 17155
2 | 3:48.56 | 10:28.61 | 17156 | 64316
3 | 14:17.42 | 6:20.16 | 64317 | 92832
4 | 20:37.58 | 3:43.29 | 92833 | 109586
5 | 24:21.12 | 5:33.20 | 109587 | 134581
6 | 29:54.32 | 3:18.46 | 134582 | 149477
7 | 33:13.03 | 6:48.26 | 149478 | 180103
8 | 40:01.29 | 5:58.20 | 180104 | 206973
9 | 45:59.49 | 8:19.03 | 206974 | 244401
10 | 54:18.52 | 10:05.42 | 244402 | 289818

Range status and errors

Selected range

Filename Z:\data\mp3\Seeding\Dream Theater\Official Bootlegs\2009-Uncovered 2003-2005\uncovered0305.wav

Peak level 100.0 %
Extraction speed 1.1 X
Range quality 100.0 %
Test CRC 7F19FB82
Copy CRC 7F19FB82
Copy OK

No errors occurred

AccurateRip summary

Track 1 accurately ripped (confidence 7) [BA05ADA0]
Track 2 accurately ripped (confidence 7) [51223448]
Track 3 accurately ripped (confidence 7) [DC61779B]
Track 4 accurately ripped (confidence 7) [B17186DA]
Track 5 accurately ripped (confidence 7) [12FA7C2C]
Track 6 accurately ripped (confidence 7) [9336E2BA]
Track 7 accurately ripped (confidence 7) [41C10ED8]
Track 8 accurately ripped (confidence 7) [71B6C465]
Track 9 accurately ripped (confidence 7) [88E8FDDE]
Track 10 accurately ripped (confidence 7) [E4FCBEF1]

All tracks accurately ripped

End of status report

REM GENRE “Progressive Metal”
REM DATE 2009
REM DISCID 8D0F180A
REM COMMENT “ExactAudioCopy v1.0b1”
PERFORMER “Dream Theater”
TITLE “Official Bootleg: Uncovered 2003-2005”
FILE “uncovered0305.flac” WAVE
TRACK 01 AUDIO
TITLE “Death On Two Legs”
PERFORMER “Dream Theater”
INDEX 01 00:00:00
TRACK 02 AUDIO
TITLE “Heart Of The Sunrise”
PERFORMER “Dream Theater”
INDEX 01 03:48:56
TRACK 03 AUDIO
TITLE “Heaven And Hell”
PERFORMER “Dream Theater”
INDEX 01 14:17:42
TRACK 04 AUDIO
TITLE “Paradox”
PERFORMER “Dream Theater”
INDEX 00 20:36:21
INDEX 01 20:37:58
TRACK 05 AUDIO
TITLE “Mother Father”
PERFORMER “Dream Theater”
INDEX 00 24:20:13
INDEX 01 24:21:12
TRACK 06 AUDIO
TITLE “Machine Messiah”
PERFORMER “Dream Theater”
INDEX 00 29:52:60
INDEX 01 29:54:32
TRACK 07 AUDIO
TITLE “Since I’ve Been Loving You”
PERFORMER “Dream Theater”
INDEX 01 33:13:03
TRACK 08 AUDIO
TITLE “Diary Of A Madman”
PERFORMER “Dream Theater”
INDEX 01 40:01:29
TRACK 09 AUDIO
TITLE “Cemetary Gates”
PERFORMER “Dream Theater”
INDEX 01 45:59:49
TRACK 10 AUDIO
TITLE “Won’t Get Fooled Again”
PERFORMER “Dream Theater”
INDEX 00 54:18:17
INDEX 01 54:18:52


Leave a Reply

Your email address will not be published. Required fields are marked *

This site uses Akismet to reduce spam. Learn how your comment data is processed.