Dream Theater – Train Of Thought




Artist: Dream Theater
Year: 2003
Genre: Metal
Notes: Discogs
Add. Notes:
Cover incl.: Yes
Encoder: FLAC
Bitrate: ~1000 kBit/s (44.1 kHz/16 Bit/s)
Log & Cue incl.: Yes
Size: 500 MB
Password: “slam” (without ” “)


All Downloads/Hosters are compatible

Download 1
KatFile.com
Rapidgator.net
Turbobit.net
FileFactory.com
Download 2
KatFile.com
Rapidgator.net
Turbobit.net
FileFactory.com

Tracklist:

1 - As I Am - 7:47
2 - This Dying Soul - 11:28
3 - Endless Sacrifice - 11:23
4 - Honor Thy Father - 10:14
5 - Vacant - 2:58
6 - Stream Of Consciousness - 11:16
7 - In The Name Of God - 14:16

EAC-Log, CUE-Sheed & NFO:

Click to open spoiler
Exact Audio Copy V1.0 beta 1 from 15. November 2010

EAC extraction logfile from 21. December 2010, 21:20

Dream Theater / Train Of Thought

Used drive : LITE-ON DVDRW LH-20A1L Adapter: 4 ID: 0

Read mode : Secure
Utilize accurate stream : Yes
Defeat audio cache : Yes
Make use of C2 pointers : No

Read offset correction : 6
Overread into Lead-In and Lead-Out : No
Fill up missing offset samples with silence : Yes
Delete leading and trailing silent blocks : No
Null samples used in CRC calculations : Yes
Used interface : Installed external ASPI interface

Used output format : Internal WAV Routines
Sample format : 44.100 Hz; 16 Bit; Stereo

TOC of the extracted CD

Track | Start | Length | Start sector | End sector
———————————————————
1 | 0:00.00 | 7:47.62 | 0 | 35086
2 | 7:47.62 | 11:27.35 | 35087 | 86646
3 | 19:15.22 | 11:24.35 | 86647 | 137981
4 | 30:39.57 | 10:14.10 | 137982 | 184041
5 | 40:53.67 | 2:57.28 | 184042 | 197344
6 | 43:51.20 | 11:16.20 | 197345 | 248064
7 | 55:07.40 | 14:14.55 | 248065 | 312169
8 | 71:54.20 | 1:15.37 | 323570 | 329231

Range status and errors

Selected range

Filename Z:\data\mp3\Seeding\Dream Theater\Albums\2003-Train Of Thought\trainofthought.wav

Peak level 100.0 %
Extraction speed 0.0 X
Range quality 100.0 %
Test CRC CA199B3C
Copy CRC CA199B3C
Copy OK

No errors occurred

AccurateRip summary

Track 1 accurately ripped (confidence 32) [FA0499BD]
Track 2 accurately ripped (confidence 32) [8D126C73]
Track 3 accurately ripped (confidence 32) [903A1DFD]
Track 4 accurately ripped (confidence 32) [CBB5CB65]
Track 5 accurately ripped (confidence 34) [845ECE14]
Track 6 accurately ripped (confidence 32) [FDDF6E9F]
Track 7 accurately ripped (confidence 29) [936794AD]

All tracks accurately ripped

End of status report

REM GENRE “Progressive Metal”
REM DATE 2003
REM DISCID 6C112508
REM COMMENT “ExactAudioCopy v1.0b1”
CATALOG 0075596289122
PERFORMER “Dream Theater”
TITLE “Train Of Thought”
FILE “trainofthought.flac” WAVE
TRACK 01 AUDIO
TITLE “As I Am”
PERFORMER “Dream Theater”
ISRC USEE10340685
INDEX 01 00:00:00
TRACK 02 AUDIO
TITLE “This Dying Soul”
PERFORMER “Dream Theater”
ISRC USEE10340686
INDEX 01 07:47:62
TRACK 03 AUDIO
TITLE “Endless Sacrifice”
PERFORMER “Dream Theater”
ISRC USEE10340687
INDEX 00 19:12:07
INDEX 01 19:15:22
TRACK 04 AUDIO
TITLE “Honor Thy Father”
PERFORMER “Dream Theater”
ISRC USEE10340688
INDEX 00 30:38:45
INDEX 01 30:39:57
TRACK 05 AUDIO
TITLE “Vacant”
PERFORMER “Dream Theater”
ISRC USEE10340689
INDEX 00 40:51:22
INDEX 01 40:53:67
TRACK 06 AUDIO
TITLE “Stream Of Consciousness”
PERFORMER “Dream Theater”
ISRC USEE10340690
INDEX 01 43:51:20
TRACK 07 AUDIO
TITLE “In The Name Of God”
PERFORMER “Dream Theater”
ISRC USEE10340691
INDEX 01 55:07:40


Leave a Reply

Your email address will not be published. Required fields are marked *

Enter the text from the image below
 

This site uses Akismet to reduce spam. Learn how your comment data is processed.