Dream Theater – Train Of Thought Instrumental Demos 2003




Artist: Dream Theater
Year: 2009
Genre: Metal
Notes: Discogs
Add. Notes:
Cover incl.: Yes
Encoder: FLAC
Bitrate: ~1000 kBit/s (44.1 kHz/16 Bit/s)
Log & Cue incl.: Yes
Size: 484 MB
Password: “slam” (without ” “)


All Downloads/Hosters are compatible

Download 1
KatFile.com
Turbobit.net
FileFactory.com
Rapidgator.net
Download 2
KatFile.com
Turbobit.net
FileFactory.com
Rapidgator.net

Tracklist:

1 In The Name Of God 12:42
2 As I Am 7:06
3 Honor Thy Father 9:59
4 Endless Sacrifice 11:17
5 This Dying Soul 11:38
6 Vacant 2:47
7 Stream Of Consciousness 11:41

EAC-Log, CUE-Sheed & NFO:

Click to open spoiler
Exact Audio Copy V1.0 beta 1 from 15. November 2010

EAC extraction logfile from 24. December 2010, 10:33

Dream Theater / Train Of Thought Instrumental Demos

Used drive : LITE-ON DVDRW LH-20A1L Adapter: 4 ID: 0

Read mode : Secure
Utilize accurate stream : Yes
Defeat audio cache : Yes
Make use of C2 pointers : No

Read offset correction : 6
Overread into Lead-In and Lead-Out : No
Fill up missing offset samples with silence : Yes
Delete leading and trailing silent blocks : No
Null samples used in CRC calculations : Yes
Used interface : Installed external ASPI interface

Used output format : Internal WAV Routines
Sample format : 44.100 Hz; 16 Bit; Stereo

TOC of the extracted CD

Track | Start | Length | Start sector | End sector
———————————————————
1 | 0:00.00 | 12:43.24 | 0 | 57248
2 | 12:43.24 | 7:06.63 | 57249 | 89261
3 | 19:50.12 | 10:00.60 | 89262 | 134321
4 | 29:50.72 | 11:17.74 | 134322 | 185170
5 | 41:08.71 | 11:38.44 | 185171 | 237564
6 | 52:47.40 | 2:46.50 | 237565 | 250064
7 | 55:34.15 | 11:40.55 | 250065 | 302619

Range status and errors

Selected range

Filename Z:\data\mp3\Seeding\Dream Theater\Official Bootlegs\2009-Train Of Thought Instrumental Demos\traindemos.wav

Peak level 99.9 %
Extraction speed 1.2 X
Range quality 99.9 %
Test CRC 83A5B31F
Copy CRC 83A5B31F
Copy OK

No errors occurred

AccurateRip summary

Track 1 accurately ripped (confidence 5) [20BFC1AD]
Track 2 accurately ripped (confidence 4) [227642A7]
Track 3 accurately ripped (confidence 5) [01D949BF]
Track 4 accurately ripped (confidence 5) [E6297399]
Track 5 accurately ripped (confidence 5) [36C89ED1]
Track 6 accurately ripped (confidence 5) [CCA7E49A]
Track 7 accurately ripped (confidence 5) [0830D754]

All tracks accurately ripped

End of status report

REM GENRE “Progressive Metal”
REM DATE 2009
REM DISCID 630FC207
REM COMMENT “ExactAudioCopy v1.0b1”
PERFORMER “Dream Theater”
TITLE “Official Bootleg: Train Of Thought Instrumental Demos”
FILE “traindemos.flac” WAVE
TRACK 01 AUDIO
TITLE “In The Name Of God”
PERFORMER “Dream Theater”
INDEX 01 00:00:00
TRACK 02 AUDIO
TITLE “As I Am”
PERFORMER “Dream Theater”
INDEX 00 12:42:17
INDEX 01 12:43:24
TRACK 03 AUDIO
TITLE “Honor Thy Father”
PERFORMER “Dream Theater”
INDEX 00 19:49:01
INDEX 01 19:50:12
TRACK 04 AUDIO
TITLE “Endless Sacrifice”
PERFORMER “Dream Theater”
INDEX 00 29:48:65
INDEX 01 29:50:72
TRACK 05 AUDIO
TITLE “This Dying Soul”
PERFORMER “Dream Theater”
INDEX 00 41:07:58
INDEX 01 41:08:71
TRACK 06 AUDIO
TITLE “Vacant”
PERFORMER “Dream Theater”
INDEX 00 52:46:34
INDEX 01 52:47:40
TRACK 07 AUDIO
TITLE “Stream Of Consciousness”
PERFORMER “Dream Theater”
INDEX 01 55:34:15


0

Publication author

offline 11 hours

Chaos

3
Comments: 3Publics: 3189Registration: 02-02-2019
Spread the Download

Leave a Reply

Your email address will not be published. Required fields are marked *

Enter the text from the image below
 

This site uses Akismet to reduce spam. Learn how your comment data is processed.