Dream Theater – The Lost Paris Tapes




[Total: 0    Average: 0/5]

Artist: Dream Theater
Year: 1998
Genre: Metal
Notes: Discogs
Add. Notes:
Cover incl.: Yes
Encoder: FLAC
Bitrate: (44.1 kHz/16 Bit/s)
Log & Cue incl.: Yes
Size: 414,37 MB
Password: “slam” (without ” “)


All Downloads/Hosters are compatible

Download 1
Share-online.biz
NitroFlare.com
KatFile.com
Rapidgator.net
Download 2
Share-online.biz
NitroFlare.com
KatFile.com
Rapidgator.net

Tracklist:

1 - Burning My Soul - 6:42
2 - Under A Glass Moon - 7:48
3 - The Way It Used To Be - 8:11
4 - Anna Lee - 6:38
5 - Speak To Me - 7:24
6 - Hey You - 4:54
7 - Goodbye Yellow Brick Road - 3:56
8 - Cover My Eyes - 4:59
9 - Take Away My Pain (No Alto Sax!) - 6:44
10 - Metropolis (Demo)
11 - To Live Forever (Demo) 

EAC-Log, CUE-Sheed & NFO:

Click to open spoiler
Exact Audio Copy V1.0 beta 1 from 15. November 2010

EAC extraction logfile from 24. December 2010, 15:27

Dream Theater / The Lost Paris Tapes

Used drive : TEAC DVD+-RW DVW28SLC Adapter: 0 ID: 0

Read mode : Secure
Utilize accurate stream : Yes
Defeat audio cache : Yes
Make use of C2 pointers : No

Read offset correction : 48
Overread into Lead-In and Lead-Out : No
Fill up missing offset samples with silence : Yes
Delete leading and trailing silent blocks : No
Null samples used in CRC calculations : Yes
Used interface : Native Win32 interface for Win NT & 2000

Used output format : Internal WAV Routines
Sample format : 44.100 Hz; 16 Bit; Stereo

TOC of the extracted CD

Track | Start | Length | Start sector | End sector
———————————————————
1 | 0:00.01 | 6:42.13 | 1 | 30163
2 | 6:42.14 | 7:49.15 | 30164 | 65353
3 | 14:31.29 | 8:11.31 | 65354 | 102209
4 | 22:42.60 | 6:37.57 | 102210 | 132041
5 | 29:20.42 | 7:23.38 | 132042 | 165304
6 | 36:44.05 | 4:53.43 | 165305 | 187322
7 | 41:37.48 | 3:55.70 | 187323 | 205017
8 | 45:33.43 | 4:58.63 | 205018 | 227430
9 | 50:32.31 | 6:44.05 | 227431 | 257735
10 | 57:16.36 | 9:04.74 | 257736 | 298609
11 | 66:21.35 | 4:28.51 | 298610 | 318760

Range status and errors

Selected range

Filename Z:\Seeding\Dream Theater\Bootlegs\1998-The Lost Paris Tapes\losttapes.wav

Peak level 100.0 %
Extraction speed 0.2 X
Range quality 100.0 %
Test CRC A5B6E747
Copy CRC A5B6E747
Copy OK

No errors occurred

AccurateRip summary

Track 1 accurately ripped (confidence 1) [C1C19332]
Track 2 accurately ripped (confidence 1) [0A4770B7]
Track 3 accurately ripped (confidence 1) [160C1469]
Track 4 accurately ripped (confidence 1) [BD418FFF]
Track 5 accurately ripped (confidence 1) [16D96126]
Track 6 accurately ripped (confidence 1) [2ECADCA7]
Track 7 accurately ripped (confidence 1) [7FA2FB36]
Track 8 accurately ripped (confidence 1) [D00210C7]
Track 9 accurately ripped (confidence 1) [C209788E]
Track 10 accurately ripped (confidence 1) [F2D2BE50]
Track 11 accurately ripped (confidence 1) [1F2A0852]

All tracks accurately ripped

End of status report

REM GENRE “Progressive Metal”
REM DATE 1998
REM DISCID A0109A0B
REM COMMENT “ExactAudioCopy v1.0b1”
PERFORMER “Dream Theater”
TITLE “The Lost Paris Tapes”
FILE “losttapes.flac” WAVE
TRACK 01 AUDIO
TITLE “Burning My Soul”
PERFORMER “Dream Theater”
INDEX 00 00:00:00
INDEX 01 00:00:01
TRACK 02 AUDIO
TITLE “Under A Glass Moon”
PERFORMER “Dream Theater”
INDEX 01 06:42:14
TRACK 03 AUDIO
TITLE “The way It Used To Be”
PERFORMER “Dream Theater”
INDEX 01 14:31:29
TRACK 04 AUDIO
TITLE “Anna Lee”
PERFORMER “Dream Theater”
INDEX 01 22:42:60
TRACK 05 AUDIO
TITLE “Speak To Me”
PERFORMER “Dream Theater”
INDEX 01 29:20:42
TRACK 06 AUDIO
TITLE “Hey You”
PERFORMER “Dream Theater”
INDEX 01 36:44:05
TRACK 07 AUDIO
TITLE “Goodbye Yellow Brick Road”
PERFORMER “Dream Theater”
INDEX 01 41:37:48
TRACK 08 AUDIO
TITLE “Cover My Eyes”
PERFORMER “Dream Theater”
INDEX 01 45:33:43
TRACK 09 AUDIO
TITLE “Take Away My Pain(No alto sax!)”
PERFORMER “Dream Theater”
INDEX 01 50:32:31
TRACK 10 AUDIO
TITLE “Metropolis(demo)”
PERFORMER “Dream Theater”
INDEX 01 57:16:36
TRACK 11 AUDIO
TITLE “To Live Forever(demo)”
PERFORMER “Dream Theater”
INDEX 01 66:21:35


Spread the Download

Leave a Reply

Your email address will not be published. Required fields are marked *

Enter the text from the image below
 

This site uses Akismet to reduce spam. Learn how your comment data is processed.