Dream Theater – The Covers




[Total: 0    Average: 0/5]

Artist: Dream Theater
Year: 2002
Genre: Rock
Notes: Discogs
Add. Notes:
Cover incl.: Yes
Encoder: FLAC
Bitrate: ~900 kBit/s (44.1 kHz/16 Bit/s)
Log & Cue incl.: Yes
Size: 413,84 MB
Password: “slam” (without ” “)


All Downloads/Hosters are compatible

Download 1
Share-online.biz
KatFile.com
Rapidgator.net
Download 2
Share-online.biz
KatFile.com
Rapidgator.net

Tracklist:

1 - Tin Trooper - 1:35
Beatles Medley - (6:36)
2a - Golden Slumbers - 
2b - Carry That Weight - 
2c - The End - 
3 - Perfect Stranger - 5:54
Led Zeppelin Medley - (7:56)
4a - The Rover - 
4b - Achilles Last Stand - 
4c - The Song Remains The Same - 
Yes Medley - (14:13)
5a - Machine Messiah - 
5b - Heart Of The Sunrise - 
5c - Close To The Edge - 
5e - Siberian Khatru - 
5f - Starship Trooper - 
Medley - (12:09)
6a - In The Flesh - 
6b - Carry On Wayward Son - 
6c - Bohemian Rhapsody - 
6d - Lovin' Touchin' Squeezin' - 
6e - Cruise Control - 
6f - Turn It On Again - 
7 - Mission Impossible - 1:28
8 - Hey You - 4:33
9 - Goodbye Yellow Brick Road - 3:10
10 - Anna Lee - 6:33

EAC-Log, CUE-Sheed & NFO:

Click to open spoiler
Exact Audio Copy V1.1 from 23. June 2015

EAC extraction logfile from 23. January 2017, 17:44

Dream Theater / The Covers

Used drive : HL-DT-STBD-RE WH16NS40 Adapter: 6 ID: 0

Read mode : Secure
Utilize accurate stream : Yes
Defeat audio cache : Yes
Make use of C2 pointers : No

Read offset correction : 6
Overread into Lead-In and Lead-Out : No
Fill up missing offset samples with silence : Yes
Delete leading and trailing silent blocks : No
Null samples used in CRC calculations : Yes
Used interface : Installed external ASPI interface

Used output format : Internal WAV Routines
Sample format : 44.100 Hz; 16 Bit; Stereo

TOC of the extracted CD

Track | Start | Length | Start sector | End sector
———————————————————
1 | 0:00.00 | 1:34.48 | 0 | 7097
2 | 1:34.48 | 6:36.27 | 7098 | 36824
3 | 8:11.00 | 5:54.26 | 36825 | 63400
4 | 14:05.26 | 7:56.35 | 63401 | 99135
5 | 22:01.61 | 14:12.58 | 99136 | 163093
6 | 36:14.44 | 12:08.40 | 163094 | 217733
7 | 48:23.09 | 1:18.26 | 217734 | 223609
8 | 49:41.35 | 4:32.46 | 223610 | 244055
9 | 54:14.06 | 3:10.16 | 244056 | 258321
10 | 57:24.22 | 6:33.13 | 258322 | 287809

Range status and errors

Selected range

Filename Z:\data\hexonut\Seeding\Dream Theater\Bootlegs\2004-The Covers\The Covers.wav

Peak level 100.0 %
Extraction speed 7.6 X
Range quality 100.0 %
Test CRC A2965749
Copy CRC A2965749
Copy OK

No errors occurred

AccurateRip summary

Track 1 not present in database
Track 2 not present in database
Track 3 not present in database
Track 4 not present in database
Track 5 not present in database
Track 6 not present in database
Track 7 not present in database
Track 8 not present in database
Track 9 not present in database
Track 10 not present in database

None of the tracks are present in the AccurateRip database

End of status report

==== Log checksum 0F02727BC13DA9B9118666B09ECCC9670A375891D455AAA57E32F62A598C8D77 ====

REM GENRE “Progressive Metal”
REM DATE 2004
REM DISCID 940EFD0A
REM COMMENT “ExactAudioCopy v1.1”
PERFORMER “Dream Theater”
TITLE “The Covers”
FILE “The Covers.flac” WAVE
TRACK 01 AUDIO
TITLE “The Trooper”
PERFORMER “Dream Theater”
INDEX 01 00:00:00
TRACK 02 AUDIO
TITLE “Beatles Medley”
PERFORMER “Dream Theater”
INDEX 00 01:32:48
INDEX 01 01:34:48
TRACK 03 AUDIO
TITLE “Perfect Strangers”
PERFORMER “Dream Theater”
INDEX 00 08:09:00
INDEX 01 08:11:00
TRACK 04 AUDIO
TITLE “Led Zepplin Medley”
PERFORMER “Dream Theater”
INDEX 00 14:03:26
INDEX 01 14:05:26
TRACK 05 AUDIO
TITLE “Yes Medley”
PERFORMER “Dream Theater”
INDEX 00 21:59:61
INDEX 01 22:01:61
TRACK 06 AUDIO
TITLE “Carry on my Wayward Son/Bohemian Rhapsody”
PERFORMER “Dream Theater”
INDEX 00 36:12:44
INDEX 01 36:14:44
TRACK 07 AUDIO
TITLE “Mission Impossible”
PERFORMER “Dream Theater”
INDEX 00 48:21:09
INDEX 01 48:23:09
TRACK 08 AUDIO
TITLE “Hey You”
PERFORMER “Dream Theater”
INDEX 00 49:39:35
INDEX 01 49:41:35
TRACK 09 AUDIO
TITLE “Goodebye Yellow Brick Road”
PERFORMER “Dream Theater”
INDEX 00 54:12:06
INDEX 01 54:14:06
TRACK 10 AUDIO
TITLE “Anna Lee”
PERFORMER “Dream Theater”
INDEX 00 57:22:22
INDEX 01 57:24:22


Spread the Download

Leave a Reply

Your email address will not be published. Required fields are marked *

Enter the text from the image below
 

This site uses Akismet to reduce spam. Learn how your comment data is processed.