Dream Theater – The Covers 2




Artist: Dream Theater
Year: 2004
Genre: Metal
Notes: Discogs
Add. Notes:
Cover incl.: Yes
Encoder: FLAC
Bitrate: ~900 kBit/s (44.1 kHz/16 Bit/s)
Log & Cue incl.: Yes
Size: 456,79 MB
Password: “slam” (without ” “)


All Downloads/Hosters are compatible

Download 1
Turbobit.net
NitroFlare.com
KatFile.com
Rapidgator.net
Download 2
Turbobit.net
NitroFlare.com
KatFile.com
Rapidgator.net

Tracklist:

1. Space-Dye Vest (Acoustic Demo Version) 	
2. Tears (Rush Cover, Acoustic) 	
3. The Silent Man (Acoustic Version) 	
4. Lifting Shadows Of A Dream (Acoustic Version) 	
5. Wait For Sleep (Acoustic Version) 	
6. Lifting Shadows Off A Dream (Electric Version) 	
7. 6:00 (Electric Version) 	
8. Perfect Stranger (Deep Purple Cover) 	
9. Hallowed By The Name (Iron Maiden Cover) 	
10. One Of These Days (Pink Floyd Cover) 	
11. Vacant/Stream Of Consciousness (Live)

EAC-Log, CUE-Sheed & NFO:

Click to open spoiler
Exact Audio Copy V1.0 beta 1 from 15. November 2010

EAC extraction logfile from 24. December 2010, 14:45

Dream Theater / The Covers 2

Used drive : TEAC DVD+-RW DVW28SLC Adapter: 0 ID: 0

Read mode : Secure
Utilize accurate stream : Yes
Defeat audio cache : Yes
Make use of C2 pointers : No

Read offset correction : 48
Overread into Lead-In and Lead-Out : No
Fill up missing offset samples with silence : Yes
Delete leading and trailing silent blocks : No
Null samples used in CRC calculations : Yes
Used interface : Native Win32 interface for Win NT & 2000

Used output format : Internal WAV Routines
Sample format : 44.100 Hz; 16 Bit; Stereo

TOC of the extracted CD

Track | Start | Length | Start sector | End sector
———————————————————
1 | 0:00.00 | 6:48.47 | 0 | 30646
2 | 6:48.47 | 3:23.50 | 30647 | 45921
3 | 10:12.22 | 3:36.41 | 45922 | 62162
4 | 13:48.63 | 6:06.44 | 62163 | 89656
5 | 19:55.32 | 2:36.55 | 89657 | 101411
6 | 22:32.12 | 7:51.70 | 101412 | 136806
7 | 30:24.07 | 6:07.67 | 136807 | 164398
8 | 36:31.74 | 5:57.30 | 164399 | 191203
9 | 42:29.29 | 7:52.04 | 191204 | 226607
10 | 50:21.33 | 7:17.57 | 226608 | 259439
11 | 57:39.15 | 13:49.00 | 259440 | 321614

Range status and errors

Selected range

Filename Z:\Seeding\Dream Theater\Bootlegs\2004-The Covers 2\covers2.wav

Peak level 100.0 %
Extraction speed 0.6 X
Range quality 100.0 %
Test CRC 3EE8BA5D
Copy CRC 3EE8BA5D
Copy OK

No errors occurred

AccurateRip summary

Track 1 accurately ripped (confidence 2) [E6DEE6EA]
Track 2 accurately ripped (confidence 2) [248DFCD6]
Track 3 accurately ripped (confidence 2) [412F3BFE]
Track 4 accurately ripped (confidence 2) [334A1020]
Track 5 accurately ripped (confidence 2) [53D485EC]
Track 6 accurately ripped (confidence 2) [F72F6960]
Track 7 accurately ripped (confidence 2) [3BCF20B7]
Track 8 accurately ripped (confidence 2) [20FF31EC]
Track 9 accurately ripped (confidence 2) [1F09E1F1]
Track 10 accurately ripped (confidence 2) [3C626E3D]
Track 11 accurately ripped (confidence 2) [4590BACF]

All tracks accurately ripped

End of status report

REM GENRE “Progressive Metal”
REM DATE 2004
REM DISCID 7F10C00B
REM COMMENT “ExactAudioCopy v1.0b1”
PERFORMER “Dream Theater”
TITLE “The Covers 2”
FILE “covers2.flac” WAVE
TRACK 01 AUDIO
TITLE “Space-Dye Vest (Acoustic Demo Version, Vocals by Kevin Moore)”
PERFORMER “Dream Theater”
FLAGS DCP
INDEX 01 00:00:00
TRACK 02 AUDIO
TITLE “Tears (Rush Cover, Acoustic Version)”
PERFORMER “Dream Theater”
FLAGS DCP
INDEX 00 06:46:47
INDEX 01 06:48:47
TRACK 03 AUDIO
TITLE “The Silent Man (Acoustic Version)”
PERFORMER “Dream Theater”
FLAGS DCP
INDEX 00 10:10:22
INDEX 01 10:12:22
TRACK 04 AUDIO
TITLE “Lifting Shadows Off A Dream (Acoustic Version)”
PERFORMER “Dream Theater”
FLAGS DCP
INDEX 00 13:46:63
INDEX 01 13:48:63
TRACK 05 AUDIO
TITLE “Wait For Sleep (Acoustic Version, Live At Vara Studios, Hilversum, Netherland…”
PERFORMER “Dream Theater”
FLAGS DCP
INDEX 00 19:53:32
INDEX 01 19:55:32
TRACK 06 AUDIO
TITLE “Lifting Shadows Off A Dream (Electric Version)”
PERFORMER “Dream Theater”
FLAGS DCP
INDEX 00 22:30:12
INDEX 01 22:32:12
TRACK 07 AUDIO
TITLE “6:00 (Electric Version)”
PERFORMER “Dream Theater”
FLAGS DCP
INDEX 00 30:22:07
INDEX 01 30:24:07
TRACK 08 AUDIO
TITLE “Perfect Strangers (Deep Purple Cover, Live at BBC Studios, London, 31 January…”
PERFORMER “Dream Theater”
FLAGS DCP
INDEX 00 36:29:74
INDEX 01 36:31:74
TRACK 09 AUDIO
TITLE “Hallowd Be Thy Name (Iron Maiden Cover, Live at Forum, Milan, 5 February 2004)”
PERFORMER “Dream Theater”
FLAGS DCP
INDEX 00 42:27:29
INDEX 01 42:29:29
TRACK 10 AUDIO
TITLE “One Of These Days (Pink Floyd Cover)”
PERFORMER “Dream Theater”
FLAGS DCP
INDEX 00 50:19:33
INDEX 01 50:21:33
TRACK 11 AUDIO
TITLE “Vacant/Stream Of Consciousness (Complete Version, Live At Ahoi, Rotterdam, Ne…”
PERFORMER “Dream Theater”
FLAGS DCP
INDEX 00 57:37:15
INDEX 01 57:39:15


Leave a Reply

Your email address will not be published. Required fields are marked *

Enter the text from the image below
 

This site uses Akismet to reduce spam. Learn how your comment data is processed.