Dream Theater – The Astonishing




No Cover available

Artist: Dream Theater
Year: 2016
Genre: Metal
Notes: Discogs
Add. Notes:
Watch Songs on: YouTube
Cover incl.: Yes
Encoder: FLAC
Bitrate: ~900 kBit/s (44.1 kHz/16 Bit/s)
Log & Cue incl.: Yes/Yes
Size: 965,5 MB
Password: “slam” (without ” “)


All Downloads/Hosters are compatible

Download 1
KatFile.com
Turbobit.net
Rapidgator.net
FileFactory.com
Download 2
KatFile.com
Turbobit.net
Rapidgator.net
FileFactory.com

Tracklist:

Act 1
1 Descent Of The NOMACs 
2 Dystopian Overture 
3 The Gift Of Music 
4 The Answer 
5 A Better Life 
6 Lord Nafaryus 
7 A Savior In The Square 
8 When Your Time Has Come 
9 Act Of Faythe 
10 Three Days 
11 The Hovering Sojourn 
12 Brother, Can You Hear Me? 
13 A Life Left Behind 
14 Ravenskill 
15 Chosen 
16 A Tempting Offer 
17 Digital Discord 
18 The X Aspect 
19 A New Beginning 
20 The Road To Revolution 

Act 2
1 2285 Entr'acte 
2 Moment Of Betrayal 
3 Heaven's Cove 
4 Begin Again 
5 The Path That Divides 
6 Machine Chatter 
7 The Walking Shadow 
8 My Last Farewell 
9 Losing Faythe 
10 Whispers On The Wind 
11 Hymn Of A Thousand Voices 
12 Our New World 
13 Power Down 
14 Astonishing

EAC-Log, CUE-Sheed & NFO:

Click to open spoiler
Exact Audio Copy V1.1 from 23. June 2015

EAC extraction logfile from 1. June 2016, 12:54

Dream Theater / The Astonishing Act 1

Used drive : PLEXTOR CD-R PX-240A Adapter: 0 ID: 0

Read mode : Secure
Utilize accurate stream : Yes
Defeat audio cache : Yes
Make use of C2 pointers : No

Read offset correction : 6
Overread into Lead-In and Lead-Out : No
Fill up missing offset samples with silence : Yes
Delete leading and trailing silent blocks : No
Null samples used in CRC calculations : Yes
Used interface : Installed external ASPI interface

Used output format : Internal WAV Routines
Sample format : 44.100 Hz; 16 Bit; Stereo

TOC of the extracted CD

Track | Start | Length | Start sector | End sector
———————————————————
1 | 0:00.00 | 1:10.69 | 0 | 5318
2 | 1:10.69 | 4:50.66 | 5319 | 27134
3 | 6:01.60 | 4:00.16 | 27135 | 45150
4 | 10:02.01 | 1:52.68 | 45151 | 53618
5 | 11:54.69 | 4:39.14 | 53619 | 74557
6 | 16:34.08 | 3:28.19 | 74558 | 90176
7 | 20:02.27 | 4:13.39 | 90177 | 109190
8 | 24:15.66 | 4:19.24 | 109191 | 128639
9 | 28:35.15 | 5:00.67 | 128640 | 151206
10 | 33:36.07 | 3:44.20 | 151207 | 168026
11 | 37:20.27 | 0:27.60 | 168027 | 170111
12 | 37:48.12 | 5:11.22 | 170112 | 193458
13 | 42:59.34 | 5:49.27 | 193459 | 219660
14 | 48:48.61 | 6:01.34 | 219661 | 246769
15 | 54:50.20 | 4:32.21 | 246770 | 267190
16 | 59:22.41 | 4:19.47 | 267191 | 286662
17 | 63:42.13 | 0:47.60 | 286663 | 290247
18 | 64:29.73 | 4:13.01 | 290248 | 309223
19 | 68:42.74 | 7:40.72 | 309224 | 343795
20 | 76:23.71 | 3:35.05 | 343796 | 359925

Range status and errors

Selected range

Filename Z:\data\hexonut\Seeding\Dream Theater\Albums\2016-The Astonishing\The Astonishing Act 1.wav

Peak level 100.0 %
Extraction speed 10.6 X
Range quality 100.0 %
Test CRC 39265375
Copy CRC 39265375
Copy OK

No errors occurred

AccurateRip summary

Track 1 accurately ripped (confidence 154) [F2C77C74] (AR v2)
Track 2 accurately ripped (confidence 154) [C5889E0F] (AR v2)
Track 3 accurately ripped (confidence 154) [BF557702] (AR v2)
Track 4 accurately ripped (confidence 154) [A547A98F] (AR v2)
Track 5 accurately ripped (confidence 154) [31AD0BCF] (AR v2)
Track 6 accurately ripped (confidence 155) [A0A84617] (AR v2)
Track 7 accurately ripped (confidence 154) [18A58F9A] (AR v2)
Track 8 accurately ripped (confidence 154) [DED97D0C] (AR v2)
Track 9 accurately ripped (confidence 155) [633CA13E] (AR v2)
Track 10 accurately ripped (confidence 154) [ECABC573] (AR v2)
Track 11 accurately ripped (confidence 154) [A703A12A] (AR v2)
Track 12 accurately ripped (confidence 155) [EC938FAD] (AR v2)
Track 13 accurately ripped (confidence 155) [C1D72067] (AR v2)
Track 14 accurately ripped (confidence 155) [3498C124] (AR v2)
Track 15 accurately ripped (confidence 155) [A60303C2] (AR v2)
Track 16 accurately ripped (confidence 154) [6C8BE466] (AR v2)
Track 17 accurately ripped (confidence 154) [3DF5885D] (AR v2)
Track 18 accurately ripped (confidence 155) [9FD35C06] (AR v2)
Track 19 accurately ripped (confidence 156) [6BC4E992] (AR v2)
Track 20 accurately ripped (confidence 155) [D822A776] (AR v2)

All tracks accurately ripped

End of status report

==== Log checksum 5735D7FD458183E5BC01E1AA14A3A0A9FAC072CCA3F1168F1674CF851F813F07 ====

Exact Audio Copy V1.1 from 23. June 2015

EAC extraction logfile from 1. June 2016, 12:34

Dream Theater / The Astonishing (Disc 2)

Used drive : PLEXTOR CD-R PX-240A Adapter: 0 ID: 0

Read mode : Secure
Utilize accurate stream : Yes
Defeat audio cache : Yes
Make use of C2 pointers : No

Read offset correction : 6
Overread into Lead-In and Lead-Out : No
Fill up missing offset samples with silence : Yes
Delete leading and trailing silent blocks : No
Null samples used in CRC calculations : Yes
Used interface : Installed external ASPI interface

Used output format : Internal WAV Routines
Sample format : 44.100 Hz; 16 Bit; Stereo

TOC of the extracted CD

Track | Start | Length | Start sector | End sector
———————————————————
1 | 0:00.00 | 2:20.16 | 0 | 10515
2 | 2:20.16 | 6:11.54 | 10516 | 38394
3 | 8:31.70 | 4:19.68 | 38395 | 57887
4 | 12:51.63 | 3:54.07 | 57888 | 75444
5 | 16:45.70 | 5:09.38 | 75445 | 98657
6 | 21:55.33 | 1:03.08 | 98658 | 103390
7 | 22:58.41 | 2:58.23 | 103391 | 116763
8 | 25:56.64 | 3:44.31 | 116764 | 133594
9 | 29:41.20 | 4:13.28 | 133595 | 152597
10 | 33:54.48 | 1:37.23 | 152598 | 159895
11 | 35:31.71 | 3:38.61 | 159896 | 176306
12 | 39:10.57 | 4:12.12 | 176307 | 195218
13 | 43:22.69 | 1:25.15 | 195219 | 201608
14 | 44:48.09 | 5:51.16 | 201609 | 227949

Range status and errors

Selected range

Filename Z:\data\hexonut\Seeding\Dream Theater\Albums\2016-The Astonishing\The Astonishing (Disc 2) .wav

Peak level 100.0 %
Extraction speed 8.7 X
Range quality 100.0 %
Test CRC 9C6D0959
Copy CRC 9C6D0959
Copy OK

No errors occurred

AccurateRip summary

Track 1 accurately ripped (confidence 139) [85CB84F0] (AR v2)
Track 2 accurately ripped (confidence 139) [76A33BBE] (AR v2)
Track 3 accurately ripped (confidence 140) [36AEE604] (AR v2)
Track 4 accurately ripped (confidence 140) [E46ED443] (AR v2)
Track 5 accurately ripped (confidence 140) [B79CF3C9] (AR v2)
Track 6 accurately ripped (confidence 139) [CE9C856D] (AR v2)
Track 7 accurately ripped (confidence 139) [50615738] (AR v2)
Track 8 accurately ripped (confidence 139) [4AFE546D] (AR v2)
Track 9 accurately ripped (confidence 140) [47FEDC19] (AR v2)
Track 10 accurately ripped (confidence 140) [9E0ECDDF] (AR v2)
Track 11 accurately ripped (confidence 140) [D4C7D05E] (AR v2)
Track 12 accurately ripped (confidence 140) [1A66890F] (AR v2)
Track 13 accurately ripped (confidence 139) [060C81C7] (AR v2)
Track 14 accurately ripped (confidence 138) [29882548] (AR v2)

All tracks accurately ripped

End of status report

==== Log checksum 5EF1E3709F49839FC71D9A3FEE62C10952DD2B13741FEB2610CD179024766F27 ====

REM GENRE “Progressive Metal”
REM DATE 2016
REM DISCID 1512BF14
REM COMMENT “ExactAudioCopy v1.1”
CATALOG 0016861749323
PERFORMER “Dream Theater”
TITLE “The Astonishing Act 1”
FILE “The Astonishing Act 1.flac” WAVE
TRACK 01 AUDIO
TITLE “Descent Of The Nomacs”
PERFORMER “Dream Theater”
ISRC NLA321500262
INDEX 01 00:00:00
TRACK 02 AUDIO
TITLE “Dystopian Overture”
PERFORMER “Dream Theater”
ISRC NLA321500263
INDEX 01 01:10:69
TRACK 03 AUDIO
TITLE “The Gift Of Music”
PERFORMER “Dream Theater”
ISRC NLA321500264
INDEX 01 06:01:60
TRACK 04 AUDIO
TITLE “The Answer”
PERFORMER “Dream Theater”
ISRC NLA321500265
INDEX 01 10:02:01
TRACK 05 AUDIO
TITLE “A Better Life”
PERFORMER “Dream Theater”
ISRC NLA321500266
INDEX 01 11:54:69
TRACK 06 AUDIO
TITLE “Lord Nafaryus”
PERFORMER “Dream Theater”
ISRC NLA321500267
INDEX 01 16:34:08
TRACK 07 AUDIO
TITLE “A Savior In The Square”
PERFORMER “Dream Theater”
ISRC NLA321500268
INDEX 01 20:02:27
TRACK 08 AUDIO
TITLE “When Your Time Has Come”
PERFORMER “Dream Theater”
ISRC NLA321500269
INDEX 01 24:15:66
TRACK 09 AUDIO
TITLE “Act Of Faythe”
PERFORMER “Dream Theater”
ISRC NLA321500270
INDEX 01 28:35:15
TRACK 10 AUDIO
TITLE “Three Days”
PERFORMER “Dream Theater”
ISRC NLA321500271
INDEX 01 33:36:07
TRACK 11 AUDIO
TITLE “The Hovering Sojourn”
PERFORMER “Dream Theater”
ISRC NLA321500272
INDEX 01 37:20:27
TRACK 12 AUDIO
TITLE “Brother, Can You Hear Me?”
PERFORMER “Dream Theater”
ISRC NLA321500273
INDEX 01 37:48:12
TRACK 13 AUDIO
TITLE “A Life Left Behind”
PERFORMER “Dream Theater”
ISRC NLA321500274
INDEX 01 42:59:34
TRACK 14 AUDIO
TITLE “Ravenskill”
PERFORMER “Dream Theater”
ISRC NLA321500275
INDEX 01 48:48:61
TRACK 15 AUDIO
TITLE “Chosen”
PERFORMER “Dream Theater”
ISRC NLA321500276
INDEX 01 54:50:20
TRACK 16 AUDIO
TITLE “A Tempting Offer”
PERFORMER “Dream Theater”
ISRC NLA321500277
INDEX 01 59:22:41
TRACK 17 AUDIO
TITLE “Digital Discord”
PERFORMER “Dream Theater”
ISRC NLA321500278
INDEX 01 63:42:13
TRACK 18 AUDIO
TITLE “The X Aspect”
PERFORMER “Dream Theater”
ISRC NLA321500279
INDEX 01 64:29:73
TRACK 19 AUDIO
TITLE “A New Beginning”
PERFORMER “Dream Theater”
ISRC NLA321500280
INDEX 01 68:42:74
TRACK 20 AUDIO
TITLE “The Road To Revolution”
PERFORMER “Dream Theater”
ISRC NLA321500281
INDEX 01 76:23:71

REM GENRE “Progressive Metal”
REM DATE 2016
REM DISCID A60BDF0E
REM COMMENT “ExactAudioCopy v1.1”
CATALOG 0016861749323
PERFORMER “Dream Theater”
TITLE “The Astonishing Act 2”
FILE “The Astonishing Act 2.flac” WAVE
TRACK 01 AUDIO
TITLE “2285 Entr’acte”
PERFORMER “Dream Theater”
ISRC NLA321500282
INDEX 01 00:00:00
TRACK 02 AUDIO
TITLE “Moment Of Betrayal”
PERFORMER “Dream Theater”
ISRC NLA321500283
INDEX 01 02:20:16
TRACK 03 AUDIO
TITLE “Heaven’s Cove”
PERFORMER “Dream Theater”
ISRC NLA321500284
INDEX 01 08:31:70
TRACK 04 AUDIO
TITLE “Begin Again”
PERFORMER “Dream Theater”
ISRC NLA321500285
INDEX 01 12:51:63
TRACK 05 AUDIO
TITLE “The Path That Divides”
PERFORMER “Dream Theater”
ISRC NLA321500286
INDEX 01 16:45:70
TRACK 06 AUDIO
TITLE “Machine Chatter”
PERFORMER “Dream Theater”
ISRC NLA321500287
INDEX 01 21:55:33
TRACK 07 AUDIO
TITLE “The Walking Shadow”
PERFORMER “Dream Theater”
ISRC NLA321500288
INDEX 01 22:58:41
TRACK 08 AUDIO
TITLE “My Last Farewell”
PERFORMER “Dream Theater”
ISRC NLA321500289
INDEX 01 25:56:64
TRACK 09 AUDIO
TITLE “Losing Faythe”
PERFORMER “Dream Theater”
ISRC NLA321500290
INDEX 01 29:41:20
TRACK 10 AUDIO
TITLE “Whispers On The Wind”
PERFORMER “Dream Theater”
ISRC NLA321500291
INDEX 01 33:54:48
TRACK 11 AUDIO
TITLE “Hymn Of A Thousand Voices”
PERFORMER “Dream Theater”
ISRC NLA321500292
INDEX 01 35:31:71
TRACK 12 AUDIO
TITLE “Our New World”
PERFORMER “Dream Theater”
ISRC NLA321500293
INDEX 01 39:10:57
TRACK 13 AUDIO
TITLE “Power Down”
PERFORMER “Dream Theater”
ISRC NLA321500358
INDEX 01 43:22:69
TRACK 14 AUDIO
TITLE “Astonishing”
PERFORMER “Dream Theater”
ISRC NLA321500359
INDEX 01 44:48:09


0

Publication author

offline 14 hours

Chaos

3
Comments: 4Publics: 3418Registration: 02-02-2019
Spread the Download

Leave a Reply

Your email address will not be published. Required fields are marked *

Enter the text from the image below
 

This site uses Akismet to reduce spam. Learn how your comment data is processed.