Dream Theater – Systematic Chaos (Special Edition)




[Total: 0    Average: 0/5]

Artist: Dream Theater
Year: 2007
Genre: Metal
Notes: Discogs
Add. Notes: Special Edition
Cover incl.: Yes
Encoder: FLAC
Bitrate: ~1000 kBit/s (44.1 kHz/16 Bit/s)
Log & Cue incl.: Yes
Size: 580,38 MB
Password: “slam” (without ” “)


All Downloads/Hosters are compatible

Download 1
Share-online.biz
KatFile.com
Rapidgator.net
Mexa.sh
Download 2
Share-online.biz
KatFile.com
Rapidgator.net
Mexa.sh

Tracklist:

01 - In The Presence Of Enemies - Part I - 9:00
01i - I. Prelude - 
01ii - II. Resurrection - 
02 - Forsaken - 5:35
03 - Constant Motion - 6:55
04 - The Dark Eternal Night - 8:53
05 - Repentance - 10:43
05i - VIII. Regret - 
05ii - IX. Restitution - 
06 - Prophets Of War - 6:00
07 - The Ministry Of Lost Souls - 14:57
08 - In The Presence Of Enemies - Part II - 16:38
08i - III. Heretic - 
08ii - IV. The Slaughter Of The Damned - 
08iii - V. The Reckoning (Instrumental) - 
08iv - VI. Salvation 

EAC-Log, CUE-Sheed & NFO:

Click to open spoiler
Exact Audio Copy V1.0 beta 1 from 15. November 2010

EAC extraction logfile from 23. December 2010, 9:32

Dream Theater / Systematic Chaos

Used drive : PLEXTOR CD-R PX-240A Adapter: 1 ID: 1

Read mode : Secure
Utilize accurate stream : Yes
Defeat audio cache : Yes
Make use of C2 pointers : No

Read offset correction : 6
Overread into Lead-In and Lead-Out : No
Fill up missing offset samples with silence : Yes
Delete leading and trailing silent blocks : No
Null samples used in CRC calculations : Yes
Used interface : Installed external ASPI interface

Used output format : Internal WAV Routines
Sample format : 44.100 Hz; 16 Bit; Stereo

TOC of the extracted CD

Track | Start | Length | Start sector | End sector
———————————————————
1 | 0:00.00 | 9:00.05 | 0 | 40504
2 | 9:00.05 | 5:35.42 | 40505 | 65671
3 | 14:35.47 | 6:55.28 | 65672 | 96824
4 | 21:31.00 | 8:53.40 | 96825 | 136839
5 | 30:24.40 | 10:43.32 | 136840 | 185096
6 | 41:07.72 | 6:00.53 | 185097 | 212149
7 | 47:08.50 | 14:57.05 | 212150 | 279429
8 | 62:05.55 | 16:38.32 | 279430 | 354311

Range status and errors

Selected range

Filename Z:\data\mp3\Seeding\Dream Theater\Albums\2007-Systematic Chaos\systematic.wav

Peak level 100.0 %
Extraction speed 1.4 X
Range quality 100.0 %
Test CRC FEBA56DA
Copy CRC FEBA56DA
Copy OK

No errors occurred

AccurateRip summary

Track 1 accurately ripped (confidence 34) [D6FE3D53]
Track 2 accurately ripped (confidence 34) [B1F2458D]
Track 3 accurately ripped (confidence 34) [F1BFD2CD]
Track 4 accurately ripped (confidence 34) [0D66AE5C]
Track 5 accurately ripped (confidence 34) [278DAAF0]
Track 6 accurately ripped (confidence 34) [3F2AD364]
Track 7 accurately ripped (confidence 33) [0F07D769]
Track 8 accurately ripped (confidence 32) [FA56698C]

All tracks accurately ripped

End of status report

REM GENRE “Progressive Metal”
REM DATE 2007
REM DISCID 78127408
REM COMMENT “ExactAudioCopy v1.0b1”
PERFORMER “Dream Theater”
TITLE “Systematic Chaos”
FILE “systematic.flac” WAVE
TRACK 01 AUDIO
TITLE “In The Presence of Enemies – Part I”
PERFORMER “Dream Theater”
ISRC NLA320784228
INDEX 01 00:00:00
TRACK 02 AUDIO
TITLE “Forsaken”
PERFORMER “Dream Theater”
ISRC NLA320784229
INDEX 01 09:00:05
TRACK 03 AUDIO
TITLE “Constant Motion”
PERFORMER “Dream Theater”
ISRC NLA320784230
INDEX 01 14:35:47
TRACK 04 AUDIO
TITLE “The Dark Eternal Night”
PERFORMER “Dream Theater”
ISRC NLA320784231
INDEX 01 21:31:00
TRACK 05 AUDIO
TITLE “Repentance”
PERFORMER “Dream Theater”
ISRC NLA320784232
INDEX 00 30:22:30
INDEX 01 30:24:40
TRACK 06 AUDIO
TITLE “Prophets of War”
PERFORMER “Dream Theater”
ISRC NLA320784233
INDEX 01 41:07:72
TRACK 07 AUDIO
TITLE “The Ministry of Lost Souls”
PERFORMER “Dream Theater”
ISRC NLA320784234
INDEX 01 47:08:50
TRACK 08 AUDIO
TITLE “In The Presence of Enemies – Part II”
PERFORMER “Dream Theater”
ISRC NLA320784235
INDEX 01 62:05:55


Spread the Download

Leave a Reply

Your email address will not be published. Required fields are marked *

Enter the text from the image below
 

This site uses Akismet to reduce spam. Learn how your comment data is processed.