Dream Theater – Summerfest, Milwaukee, June 29th, 1993




Artist: Dream Theater
Year: 2016
Genre: Metal
Notes: Discogs
Add. Notes:
Cover incl.: Yes
Encoder: FLAC
Bitrate: ~1000 kBit/s (44.1 kHz/16 Bit/s)
Log & Cue incl.: Yes
Size: 575 MB
Password: “slam” (without ” “)


All Downloads/Hosters are compatible

Download 1
KatFile.com
Turbobit.net
Rapidgator.net
Turbobit.net
Download 2
KatFile.com
Turbobit.net
Rapidgator.net
Turbobit.net

Tracklist:

1 - Metropolis Part One - The Miracle 
And The Sleeper 
2 - Under A Glass Moon 
3 - A fortune In Lies 
4 - Wait For Sleep - Surrounded 
5 - The Mirror (Puppies On Acid) 
6 - Take The Time 
7 - Status Seeker 
8 - Another Day 
9 - To Live Forever 
10 - Pull Me Under 

EAC-Log, CUE-Sheed & NFO:

Click to open spoiler
Exact Audio Copy V1.0 beta 4 from 7. December 2014

EAC extraction logfile from 2. August 2017, 16:27

Dream Theater / Summerfest Milwaukee, June 29th, 1993

Used drive : MATSHITADVD-RAM UJ8C0 Adapter: 1 ID: 0

Read mode : Secure
Utilize accurate stream : Yes
Defeat audio cache : Yes
Make use of C2 pointers : No

Read offset correction : 103
Overread into Lead-In and Lead-Out : No
Fill up missing offset samples with silence : Yes
Delete leading and trailing silent blocks : No
Null samples used in CRC calculations : Yes
Used interface : Installed external ASPI interface

Used output format : Internal WAV Routines
Sample format : 44.100 Hz; 16 Bit; Stereo

TOC of the extracted CD

Track | Start | Length | Start sector | End sector
———————————————————
1 | 0:00.00 | 9:58.37 | 0 | 44886
2 | 9:58.37 | 7:18.55 | 44887 | 77791
3 | 17:17.17 | 5:08.56 | 77792 | 100947
4 | 22:25.73 | 8:53.00 | 100948 | 140922
5 | 31:18.73 | 8:10.61 | 140923 | 177733
6 | 39:29.59 | 3:49.16 | 177734 | 194924
7 | 43:19.00 | 4:17.42 | 194925 | 214241
8 | 47:36.42 | 4:49.68 | 214242 | 235984
9 | 52:26.35 | 12:28.08 | 235985 | 292092
10 | 64:54.43 | 8:50.32 | 292093 | 331874

Range status and errors

Selected range

Filename Z:\hexonut\Seeding\Dream Theater\Bootlegs\2016-Summerfest Milwaukee June 29th, 1993\Summerfest Milwaukee, June 29th, 1993.wav

Peak level 94.9 %
Extraction speed 2.2 X
Range quality 100.0 %
Test CRC A0031B2F
Copy CRC A0031B2F
Copy OK

No errors occurred

AccurateRip summary

Track 1 accurately ripped (confidence 1) [D1AF7E00] (AR v2)
Track 2 accurately ripped (confidence 1) [813356AC] (AR v2)
Track 3 accurately ripped (confidence 1) [2E85E142] (AR v2)
Track 4 accurately ripped (confidence 1) [9838905A] (AR v2)
Track 5 accurately ripped (confidence 1) [0F9E58B0] (AR v2)
Track 6 accurately ripped (confidence 1) [D566411E] (AR v2)
Track 7 accurately ripped (confidence 1) [89C425EF] (AR v2)
Track 8 accurately ripped (confidence 1) [D0797C0C] (AR v2)
Track 9 accurately ripped (confidence 1) [5BDE67EC] (AR v2)
Track 10 accurately ripped (confidence 1) [15CC93C7] (AR v2)

All tracks accurately ripped

End of status report

==== Log checksum 84D7C5552EFCF86E3EDD0C6D3DA0A9BB86750E734420D3D9F7CF9DA44F4B6124 ====

REM DISCID 8C11490A
REM COMMENT “ExactAudioCopy v1.0b4”
PERFORMER “Dream Theater”
TITLE “Summerfest Milwaukee, June 29th, 1993”
FILE “Summerfest Milwaukee, June 29th, 1993.flac” WAVE
TRACK 01 AUDIO
TITLE “Metropolis Part I – The Miracle And The Sleeper”
PERFORMER “Dream Theater”
INDEX 01 00:00:00
TRACK 02 AUDIO
TITLE “Under A Glass Moon”
PERFORMER “Dream Theater”
INDEX 01 09:58:37
TRACK 03 AUDIO
TITLE “A Fortune In Lies”
PERFORMER “Dream Theater”
INDEX 01 17:17:17
TRACK 04 AUDIO
TITLE “Wait For Sleep – Surrounded”
PERFORMER “Dream Theater”
INDEX 01 22:25:73
TRACK 05 AUDIO
TITLE “The Mirror (Puppies On Acid)”
PERFORMER “Dream Theater”
INDEX 01 31:18:73
TRACK 06 AUDIO
TITLE “Take The Time”
PERFORMER “Dream Theater”
INDEX 01 39:29:59
TRACK 07 AUDIO
TITLE “Status Seeker”
PERFORMER “Dream Theater”
INDEX 01 43:19:00
TRACK 08 AUDIO
TITLE “Another Day”
PERFORMER “Dream Theater”
INDEX 01 47:36:42
TRACK 09 AUDIO
TITLE “To Live Forever”
PERFORMER “Dream Theater”
INDEX 01 52:26:35
TRACK 10 AUDIO
TITLE “Pull Me Under”
PERFORMER “Dream Theater”
INDEX 01 64:54:43


Leave a Reply

Your email address will not be published. Required fields are marked *

This site uses Akismet to reduce spam. Learn how your comment data is processed.