Dream Theater – Six Degrees Of Inner Turbulence




Artist: Dream Theater
Year: 2002
Genre: Metal
Notes: Discogs
Add. Notes:
Cover incl.: Yes
Encoder: FLAC
Bitrate: ~1000 kBit/s (44.1 kHz/16 Bit/s)
Log & Cue incl.: Yes
Size: 679 MB
Password: “slam” (without ” “)


All Downloads/Hosters are compatible

Download 1
KatFile.com
Turbobit.net
FileFactory.com
Rapidgator.net
Download 2
KatFile.com
Turbobit.net
FileFactory.com
Rapidgator.net

Tracklist:

1-1 - The Glass Prison - 13:52
1-2 - Blind Faith - 10:21
1-3 - Misunderstood - 9:34
1-4 - The Great Debate - 13:43
1-5 - Disappear - 6:46
Six Degrees Of Inner Turbulence - 
42:04
2-1 - I. Overture - 6:49
2-2 - II. About To Crash - 5:51
2-3 - III. War Inside My Head - 2:08
2-4 - IV. The Test That Stumped 
Them All - 5:03
2-5 - V. Goodnight Kiss - 6:17
2-6 - VI. Solitary Shell - 5:47
2-7 - VII. About To Crash (Reprise) - 
4:04
2-8 - VIII. Losing Time / Grand 
Finale - 6:01

EAC-Log, CUE-Sheed & NFO:

Click to open spoiler
Exact Audio Copy V1.0 beta 1 from 15. November 2010

EAC extraction logfile from 21. December 2010, 12:51

Dream Theater / Six Degrees Of Inner Turbulence (disc 1)

Used drive : PLEXTOR CD-R PX-240A Adapter: 1 ID: 1

Read mode : Secure
Utilize accurate stream : Yes
Defeat audio cache : Yes
Make use of C2 pointers : No

Read offset correction : 6
Overread into Lead-In and Lead-Out : No
Fill up missing offset samples with silence : Yes
Delete leading and trailing silent blocks : No
Null samples used in CRC calculations : Yes
Used interface : Installed external ASPI interface

Used output format : Internal WAV Routines
Sample format : 44.100 Hz; 16 Bit; Stereo

TOC of the extracted CD

Track | Start | Length | Start sector | End sector
———————————————————
1 | 0:00.00 | 13:52.57 | 0 | 62456
2 | 13:52.57 | 10:21.18 | 62457 | 109049
3 | 24:14.00 | 9:32.47 | 109050 | 151996
4 | 33:46.47 | 13:45.63 | 151997 | 213934
5 | 47:32.35 | 6:45.72 | 213935 | 244381

Range status and errors

Selected range

Filename Z:\data\mp3\Seeding\Dream Theater\Albums\2002-Six Degrees Of Inner Turbulence\6doit1.wav

Peak level 100.0 %
Extraction speed 0.5 X
Range quality 100.0 %
Test CRC FEC3BC5A
Copy CRC FEC3BC5A
Copy OK

No errors occurred

AccurateRip summary

Track 1 accurately ripped (confidence 2) [84EB7B16]
Track 2 accurately ripped (confidence 2) [DCCB2211]
Track 3 accurately ripped (confidence 2) [963399B6]
Track 4 accurately ripped (confidence 2) [28898702]
Track 5 accurately ripped (confidence 2) [CC0D5492]

All tracks accurately ripped

End of status report

Exact Audio Copy V1.0 beta 1 from 15. November 2010

EAC extraction logfile from 21. December 2010, 12:51

Dream Theater / Six Degrees Of Inner Turbulence (Disc 2)

Used drive : LITE-ON DVDRW LH-20A1L Adapter: 4 ID: 0

Read mode : Secure
Utilize accurate stream : Yes
Defeat audio cache : Yes
Make use of C2 pointers : No

Read offset correction : 6
Overread into Lead-In and Lead-Out : No
Fill up missing offset samples with silence : Yes
Delete leading and trailing silent blocks : No
Null samples used in CRC calculations : Yes
Used interface : Installed external ASPI interface

Used output format : Internal WAV Routines
Sample format : 44.100 Hz; 16 Bit; Stereo

TOC of the extracted CD

Track | Start | Length | Start sector | End sector
———————————————————
1 | 0:00.00 | 6:50.35 | 0 | 30784
2 | 6:50.35 | 5:50.72 | 30785 | 57106
3 | 12:41.32 | 2:08.08 | 57107 | 66714
4 | 14:49.40 | 5:03.17 | 66715 | 89456
5 | 19:52.57 | 6:17.33 | 89457 | 117764
6 | 26:10.15 | 5:47.62 | 117765 | 143851
7 | 31:58.02 | 4:04.65 | 143852 | 162216
8 | 36:02.67 | 5:59.33 | 162217 | 189174

Range status and errors

Selected range

Filename Z:\data\mp3\Seeding\Dream Theater\Albums\2002-Six Degrees Of Inner Turbulence\6doit2.wav

Peak level 100.0 %
Extraction speed 0.8 X
Range quality 100.0 %
Test CRC FB1FAE9D
Copy CRC FB1FAE9D
Copy OK

No errors occurred

AccurateRip summary

Track 1 accurately ripped (confidence 76) [E0FCC344]
Track 2 accurately ripped (confidence 75) [17BA9BFF]
Track 3 accurately ripped (confidence 74) [76866AAF]
Track 4 accurately ripped (confidence 74) [ACDF2D5F]
Track 5 accurately ripped (confidence 73) [91C9C8F9]
Track 6 accurately ripped (confidence 74) [A9423815]
Track 7 accurately ripped (confidence 74) [9E4F824D]
Track 8 accurately ripped (confidence 74) [218BD325]

All tracks accurately ripped

End of status report

REM GENRE “Progressive Metal”
REM DATE 2002
REM DISCID 400CBA05
REM COMMENT “ExactAudioCopy v1.0b1”
CATALOG 0075596274227
PERFORMER “Dream Theater”
TITLE “Six Degrees Of Inner Turbulence CD 1”
FILE “6doit1.flac” WAVE
TRACK 01 AUDIO
TITLE “The Glass Prison”
PERFORMER “Dream Theater”
ISRC USEE10140472
INDEX 01 00:00:00
TRACK 02 AUDIO
TITLE “Blind Faith”
PERFORMER “Dream Theater”
ISRC USEE10140473
INDEX 01 13:52:57
TRACK 03 AUDIO
TITLE “Misunderstood”
PERFORMER “Dream Theater”
ISRC USEE10140474
INDEX 01 24:14:00
TRACK 04 AUDIO
TITLE “The Great Debate”
PERFORMER “Dream Theater”
ISRC USEE10140475
INDEX 01 33:46:47
TRACK 05 AUDIO
TITLE “Disappear”
PERFORMER “Dream Theater”
ISRC USEE10140476
INDEX 01 47:32:35

REM GENRE “Progressive Metal”
REM DATE 2002
REM DISCID 6209DA08
REM COMMENT “ExactAudioCopy v1.0b1”
CATALOG 0075596274227
PERFORMER “Dream Theater”
TITLE “Six Degrees Of Inner Turbulence CD 2”
FILE “6doit2.flac” WAVE
TRACK 01 AUDIO
TITLE “I. Overture”
PERFORMER “Dream Theater”
ISRC USEE10140477
INDEX 01 00:00:00
TRACK 02 AUDIO
TITLE “II. About To Crash”
PERFORMER “Dream Theater”
ISRC USEE10140478
INDEX 01 06:50:35
TRACK 03 AUDIO
TITLE “III. War Inside My Head”
PERFORMER “Dream Theater”
ISRC USEE10140479
INDEX 01 12:41:32
TRACK 04 AUDIO
TITLE “IV. The Test That Stumped Them All”
PERFORMER “Dream Theater”
ISRC USEE10140479
INDEX 01 14:49:40
TRACK 05 AUDIO
TITLE “V. Goodnight Kiss”
PERFORMER “Dream Theater”
ISRC USEE10140481
INDEX 01 19:52:57
TRACK 06 AUDIO
TITLE “VI. Solitary Shell”
PERFORMER “Dream Theater”
ISRC USEE10140482
INDEX 01 26:10:15
TRACK 07 AUDIO
TITLE “VII. About To Crash (Reprise)”
PERFORMER “Dream Theater”
ISRC USEE10140483
INDEX 01 31:58:02
TRACK 08 AUDIO
TITLE “VIII. Losing Time, Grand Finale”
PERFORMER “Dream Theater”
ISRC USEE10140484
INDEX 01 36:02:67


Leave a Reply

Your email address will not be published. Required fields are marked *

This site uses Akismet to reduce spam. Learn how your comment data is processed.