Dream Theater – Score (20th Anniversary World Tour)




No Cover available

Artist: Dream Theater
Year: 2006
Genre: Metal
Notes: Discogs
Add. Notes:
Watch Songs on: YouTube
Cover incl.: Yes
Encoder: FLAC
Bitrate: ~1000 kBit/s (44.1 kHz/16 Bit/s)
Log & Cue incl.: Yes/Yes
Size: 1107,4 MB
Password: “slam” (without ” “)


All Downloads/Hosters are compatible

Download 1
KatFile.com
Turbobit.net
Rapidgator.net
FileFactory.com
Download 2
KatFile.com
Turbobit.net
Rapidgator.net
FileFactory.com

Tracklist:

CD 1
1. The Root Of All Evil 8:21
2. I Walk Beside You 4:11
3. Another Won 5:22
4. Afterlife 5:47
5. Under A Glass Moon 7:29
6. Innocence Faded 5:32
7. Raise The Knife 11:43
8. The Spirit Carries On 9:44

CD 2
1. Six Degrees Of Inner Turbulence 41:22
2. Vacant 3:02
3. The Answer Lies Within 5:36
4. Sacrificed Sons 10:36

CD 3
1. Octavarium 26:38
2. Metropolis 10:37

EAC-Log, CUE-Sheed & NFO:

Click to open spoiler
Exact Audio Copy V1.0 beta 1 from 15. November 2010

EAC extraction logfile from 23. December 2010, 11:29

Dream Theater / Score : 20th Anniversary World Tour Live with The Octavarium Orchestra (Disc-1)

Used drive : LITE-ON DVDRW LH-20A1L Adapter: 4 ID: 0

Read mode : Secure
Utilize accurate stream : Yes
Defeat audio cache : Yes
Make use of C2 pointers : No

Read offset correction : 6
Overread into Lead-In and Lead-Out : No
Fill up missing offset samples with silence : Yes
Delete leading and trailing silent blocks : No
Null samples used in CRC calculations : Yes
Used interface : Installed external ASPI interface

Used output format : Internal WAV Routines
Sample format : 44.100 Hz; 16 Bit; Stereo

TOC of the extracted CD

Track | Start | Length | Start sector | End sector
———————————————————
1 | 0:00.00 | 8:22.10 | 0 | 37659
2 | 8:22.10 | 4:10.55 | 37660 | 56464
3 | 12:32.65 | 5:21.74 | 56465 | 80613
4 | 17:54.64 | 5:56.05 | 80614 | 107318
5 | 23:50.69 | 7:28.57 | 107319 | 140975
6 | 31:19.51 | 5:36.24 | 140976 | 166199
7 | 36:56.00 | 11:43.15 | 166200 | 218939
8 | 48:39.15 | 9:46.25 | 218940 | 262914

Range status and errors

Selected range

Filename Z:\data\mp3\Seeding\Dream Theater\Live Albums\2006-Score\score1.wav

Peak level 100.0 %
Extraction speed 1.1 X
Range quality 100.0 %
Test CRC 6D7064EB
Copy CRC 6D7064EB
Copy OK

No errors occurred

AccurateRip summary

Track 1 accurately ripped (confidence 44) [A8753741]
Track 2 accurately ripped (confidence 44) [D3F4A132]
Track 3 accurately ripped (confidence 44) [AA347A6D]
Track 4 accurately ripped (confidence 44) [B682126E]
Track 5 accurately ripped (confidence 44) [9D6060E0]
Track 6 accurately ripped (confidence 44) [D5734EAE]
Track 7 accurately ripped (confidence 43) [EA336D94]
Track 8 accurately ripped (confidence 42) [1824408F]

All tracks accurately ripped

End of status report

Exact Audio Copy V1.0 beta 1 from 15. November 2010

EAC extraction logfile from 23. December 2010, 11:47

Dream Theater / Score: 20th Anniversary World Tour Live with The Octavarium Orchestra (disc 2)

Used drive : PLEXTOR CD-R PX-240A Adapter: 1 ID: 1

Read mode : Secure
Utilize accurate stream : Yes
Defeat audio cache : Yes
Make use of C2 pointers : No

Read offset correction : 6
Overread into Lead-In and Lead-Out : No
Fill up missing offset samples with silence : Yes
Delete leading and trailing silent blocks : No
Null samples used in CRC calculations : Yes
Used interface : Installed external ASPI interface

Used output format : Internal WAV Routines
Sample format : 44.100 Hz; 16 Bit; Stereo

TOC of the extracted CD

Track | Start | Length | Start sector | End sector
———————————————————
1 | 0:00.00 | 41:33.35 | 0 | 187009
2 | 41:33.35 | 3:01.36 | 187010 | 200620
3 | 44:34.71 | 5:35.51 | 200621 | 225796
4 | 50:10.47 | 10:38.11 | 225797 | 273657

Range status and errors

Selected range

Filename Z:\data\mp3\Seeding\Dream Theater\Live Albums\2006-Score\score2.wav

Peak level 100.0 %
Extraction speed 1.5 X
Range quality 100.0 %
Test CRC F25C5A21
Copy CRC F25C5A21
Copy OK

No errors occurred

AccurateRip summary

Track 1 accurately ripped (confidence 43) [031598F0]
Track 2 accurately ripped (confidence 44) [5F4AED3E]
Track 3 accurately ripped (confidence 43) [94C1ABB4]
Track 4 accurately ripped (confidence 39) [D6E3EB35]

All tracks accurately ripped

End of status report

Exact Audio Copy V1.0 beta 1 from 15. November 2010

EAC extraction logfile from 23. December 2010, 11:44

Dream Theater / Score: 20th Anniversary World Tour Live with The Octavarium Orchestra (disc 3)

Used drive : LITE-ON DVDRW LH-20A1L Adapter: 4 ID: 0

Read mode : Secure
Utilize accurate stream : Yes
Defeat audio cache : Yes
Make use of C2 pointers : No

Read offset correction : 6
Overread into Lead-In and Lead-Out : No
Fill up missing offset samples with silence : Yes
Delete leading and trailing silent blocks : No
Null samples used in CRC calculations : Yes
Used interface : Installed external ASPI interface

Used output format : Internal WAV Routines
Sample format : 44.100 Hz; 16 Bit; Stereo

TOC of the extracted CD

Track | Start | Length | Start sector | End sector
———————————————————
1 | 0:00.00 | 27:16.12 | 0 | 122711
2 | 27:16.12 | 10:39.22 | 122712 | 170658

Range status and errors

Selected range

Filename Z:\data\mp3\Seeding\Dream Theater\Live Albums\2006-Score\score3.wav

Peak level 100.0 %
Extraction speed 1.7 X
Range quality 99.9 %
Test CRC 748D7B30
Copy CRC 748D7B30
Copy OK

No errors occurred

AccurateRip summary

Track 1 accurately ripped (confidence 106) [D535394A]
Track 2 accurately ripped (confidence 108) [18731767]

All tracks accurately ripped

End of status report

REM GENRE “Progressive Metal”
REM DATE 2006
REM DISCID 600DB108
REM COMMENT “ExactAudioCopy v1.0b1”
CATALOG 0081227406226
PERFORMER “Dream Theater”
TITLE “Score: 20th Anniversary World Tour Live with The Octavarium Orchestra CD 1”
FILE “score1.flac” WAVE
TRACK 01 AUDIO
TITLE “The Root Of All Evil”
PERFORMER “Dream Theater”
ISRC USRH10650854
INDEX 01 00:00:00
TRACK 02 AUDIO
TITLE “I Walk Beside You”
PERFORMER “Dream Theater”
ISRC USRH10650855
INDEX 01 08:22:10
TRACK 03 AUDIO
TITLE “Another Won”
PERFORMER “Dream Theater”
ISRC USRH10650856
INDEX 01 12:32:65
TRACK 04 AUDIO
TITLE “Afterlife”
PERFORMER “Dream Theater”
ISRC USRH10650857
INDEX 01 17:54:64
TRACK 05 AUDIO
TITLE “Under A Glass Moon”
PERFORMER “Dream Theater”
ISRC USRH10650858
INDEX 00 23:42:08
INDEX 01 23:50:69
TRACK 06 AUDIO
TITLE “Innocence Faded”
PERFORMER “Dream Theater”
ISRC USRH10650859
INDEX 01 31:19:51
TRACK 07 AUDIO
TITLE “Raise The Knife”
PERFORMER “Dream Theater”
ISRC USRH10650860
INDEX 00 36:51:35
INDEX 01 36:56:00
TRACK 08 AUDIO
TITLE “The Spirit Carries On”
PERFORMER “Dream Theater”
ISRC USRH10650861
INDEX 01 48:39:15

REM GENRE “Progressive Metal”
REM DATE 2006
REM DISCID 310E4004
REM COMMENT “ExactAudioCopy v1.0b1”
CATALOG 0081227406226
PERFORMER “Dream Theater”
TITLE “Score: 20th Anniversary World Tour Live with The Octavarium Orchestra CD 2”
FILE “score2.flac” WAVE
TRACK 01 AUDIO
TITLE “Six Degrees of Inner Turbulence”
PERFORMER “Dream Theater”
ISRC USRH10650862
INDEX 01 00:00:00
TRACK 02 AUDIO
TITLE “Vacant”
PERFORMER “Dream Theater”
ISRC USRH10650863
INDEX 00 41:22:71
INDEX 01 41:33:35
TRACK 03 AUDIO
TITLE “The Answer Lies Within”
PERFORMER “Dream Theater”
ISRC USRH10650864
INDEX 01 44:34:71
TRACK 04 AUDIO
TITLE “Sacrificed Sons”
PERFORMER “Dream Theater”
ISRC USRH10650865
INDEX 01 50:10:47

REM GENRE “Progressive Metal”
REM DATE 2006
REM DISCID 1408E302
REM COMMENT “ExactAudioCopy v1.0b1”
CATALOG 0081227406226
PERFORMER “Dream Theater”
TITLE “Score: 20th Anniversary World Tour Live with The Octavarium Orchestra CD 3”
FILE “score3.flac” WAVE
TRACK 01 AUDIO
TITLE “Octavarium”
PERFORMER “Dream Theater”
ISRC USRH10650866
INDEX 01 00:00:00
TRACK 02 AUDIO
TITLE “Metropolis”
PERFORMER “Dream Theater”
ISRC USRH10650867
INDEX 00 26:38:58
INDEX 01 27:16:12


0

Publication author

offline 9 hours

Chaos

3
Comments: 4Publics: 3424Registration: 02-02-2019
Spread the Download

Leave a Reply

Your email address will not be published. Required fields are marked *

Enter the text from the image below
 

This site uses Akismet to reduce spam. Learn how your comment data is processed.