Dream Theater – Once In A Livetime




Artist: Dream Theater
Year: 1998
Genre: Metal
Notes: Discogs
Add. Notes:
Cover incl.: Yes
Encoder: FLAC
Bitrate: ~1000 kBit/s (44.1 kHz/16 Bit/s)
Log & Cue incl.: Yes
Size: 1134,6 MB
Password: “slam” (without ” “)


All Downloads/Hosters are compatible

Download 1
KatFile.com
Turbobit.net
FileFactory.com
Rapidgator.net
Download 2
KatFile.com
Turbobit.net
FileFactory.com
Rapidgator.net

Tracklist:

1-1 A Change Of Seasons I: The Crimson Sunrise 3:56
1-2 A Change Of Seasons II: Innocence 3:05
1-3 Puppies On Acid 1:24
1-4 Just Let Me Breathe 5:53
1-5 Voices 10:34
1-6 Take The Time 12:20
1-7 Derek Sherinian Piano Solo 1:54
1-8 Lines In The Sand 13:13
1-9 Scarred 9:27
1-10 A Change Of Seasons IV: The Darkest Of Winters 
3:17
1-11 Ytse Jam 4:09
1-12 Mike Portnoy Drum Solo 6:59
2-1 Trial Of Tears 14:11
2-2 Hollow Years 7:01
2-3 Take Away My Pain 6:16
2-4 Caught In A Web 5:16
2-5 Lie 6:45
2-6 Peruvian Skies 7:50
2-7 John Petrucci Guitar Solo 8:06
2-8 Pull Me Under 8:15
Medley
2-9 Metropolis 6:16
2-10 Learning To Live 4:13
2-11 A Change Of Seasons VII: The Crimson Sunset 3:49

EAC-Log, CUE-Sheed & NFO:

Click to open spoiler
Exact Audio Copy V1.0 beta 1 from 15. November 2010

EAC extraction logfile from 19. December 2010, 21:44

Dream Theater / Once in a LIVEtime, Disc 1

Used drive : PLEXTOR CD-R PX-240A Adapter: 1 ID: 1

Read mode : Secure
Utilize accurate stream : Yes
Defeat audio cache : Yes
Make use of C2 pointers : No

Read offset correction : 6
Overread into Lead-In and Lead-Out : No
Fill up missing offset samples with silence : Yes
Delete leading and trailing silent blocks : No
Null samples used in CRC calculations : Yes
Used interface : Installed external ASPI interface

Used output format : Internal WAV Routines
Sample format : 44.100 Hz; 16 Bit; Stereo

TOC of the extracted CD

Track | Start | Length | Start sector | End sector
———————————————————
1 | 0:00.32 | 3:56.68 | 32 | 17799
2 | 3:57.25 | 3:05.50 | 17800 | 31724
3 | 7:03.00 | 1:24.02 | 31725 | 38026
4 | 8:27.02 | 5:53.05 | 38027 | 64506
5 | 14:20.07 | 10:34.35 | 64507 | 112091
6 | 24:54.42 | 12:20.10 | 112092 | 167601
7 | 37:14.52 | 1:54.13 | 167602 | 176164
8 | 39:08.65 | 13:13.35 | 176165 | 235674
9 | 52:22.25 | 9:27.42 | 235675 | 278241
10 | 61:49.67 | 3:17.60 | 278242 | 293076
11 | 65:07.52 | 4:09.50 | 293077 | 311801
12 | 69:17.27 | 6:59.55 | 311802 | 343281

Range status and errors

Selected range

Filename Z:\data\mp3\Seeding\Dream Theater\Live Albums\1998-Once In A Livetime\livetime1.wav

Peak level 100.0 %
Extraction speed 0.9 X
Range quality 100.0 %
Test CRC 0D75FE7E
Copy CRC 0D75FE7E
Copy OK

No errors occurred

AccurateRip summary

Track 1 accurately ripped (confidence 60) [BEAB485E]
Track 2 accurately ripped (confidence 58) [6B1D5F3A]
Track 3 accurately ripped (confidence 59) [394BB82C]
Track 4 accurately ripped (confidence 59) [151B30EF]
Track 5 accurately ripped (confidence 60) [2E0D6B9D]
Track 6 accurately ripped (confidence 59) [BBC23316]
Track 7 accurately ripped (confidence 61) [D52A8F44]
Track 8 accurately ripped (confidence 58) [87AB22B6]
Track 9 accurately ripped (confidence 57) [6482CAC2]
Track 10 accurately ripped (confidence 58) [9822CCA7]
Track 11 accurately ripped (confidence 58) [2773FF2B]
Track 12 accurately ripped (confidence 57) [ED2F3FB6]

All tracks accurately ripped

End of status report

Exact Audio Copy V1.0 beta 1 from 15. November 2010

EAC extraction logfile from 19. December 2010, 21:44

Dream Theater / Once In A LIVEtime, Disc 2

Used drive : LITE-ON DVDRW LH-20A1L Adapter: 4 ID: 0

Read mode : Secure
Utilize accurate stream : Yes
Defeat audio cache : Yes
Make use of C2 pointers : No

Read offset correction : 6
Overread into Lead-In and Lead-Out : No
Fill up missing offset samples with silence : Yes
Delete leading and trailing silent blocks : No
Null samples used in CRC calculations : Yes
Used interface : Installed external ASPI interface

Used output format : Internal WAV Routines
Sample format : 44.100 Hz; 16 Bit; Stereo

TOC of the extracted CD

Track | Start | Length | Start sector | End sector
———————————————————
1 | 0:00.32 | 14:11.20 | 32 | 63876
2 | 14:11.52 | 7:01.45 | 63877 | 95496
3 | 21:13.22 | 6:16.65 | 95497 | 123761
4 | 27:30.12 | 5:16.18 | 123762 | 147479
5 | 32:46.30 | 6:45.42 | 147480 | 177896
6 | 39:31.72 | 7:50.33 | 177897 | 213179
7 | 47:22.30 | 8:06.60 | 213180 | 249689
8 | 55:29.15 | 8:15.12 | 249690 | 286826
9 | 63:44.27 | 6:16.25 | 286827 | 315051
10 | 70:00.52 | 4:13.28 | 315052 | 334054
11 | 74:14.05 | 3:49.12 | 334055 | 351241

Range status and errors

Selected range

Filename Z:\data\mp3\Seeding\Dream Theater\Live Albums\1998-Once In A Livetime\livetime2.wav

Peak level 98.8 %
Extraction speed 0.2 X
Range quality 100.0 %
Test CRC 5DDFFBF1
Copy CRC 5DDFFBF1
Copy OK

No errors occurred

AccurateRip summary

Track 1 accurately ripped (confidence 60) [A0D51A91]
Track 2 accurately ripped (confidence 59) [DDEBD07C]
Track 3 accurately ripped (confidence 60) [4CB3BCA6]
Track 4 accurately ripped (confidence 58) [B8472CB0]
Track 5 accurately ripped (confidence 59) [95C75CAF]
Track 6 accurately ripped (confidence 58) [C0A850C6]
Track 7 accurately ripped (confidence 59) [3BDD569B]
Track 8 accurately ripped (confidence 58) [18D5D48E]
Track 9 accurately ripped (confidence 58) [EBF3E3CC]
Track 10 accurately ripped (confidence 57) [D1FD5EBE]
Track 11 accurately ripped (confidence 57) [9E40CFE5]

All tracks accurately ripped

End of status report

REM GENRE “Progressive Metal”
REM DATE 1998
REM DISCID A411E10C
REM COMMENT “ExactAudioCopy v1.0b1”
CATALOG 0075596230827
PERFORMER “Dream Theater”
TITLE “Once in a LIVEtime, Disc 1”
FILE “livetime1.flac” WAVE
TRACK 01 AUDIO
TITLE “A Change of Seasons I: The Crimson Sunrise”
PERFORMER “Dream Theater”
ISRC USEW19800195
INDEX 00 00:00:00
INDEX 01 00:00:32
TRACK 02 AUDIO
TITLE “A Change of Seasons II: Innocence”
PERFORMER “Dream Theater”
ISRC USEW19800196
INDEX 01 03:57:25
TRACK 03 AUDIO
TITLE “Puppies on Acid”
PERFORMER “Dream Theater”
ISRC USEW19800197
INDEX 01 07:03:00
TRACK 04 AUDIO
TITLE “Just Let Me Breathe”
PERFORMER “Dream Theater”
ISRC USEW19800198
INDEX 01 08:27:02
TRACK 05 AUDIO
TITLE “Voices”
PERFORMER “Dream Theater”
ISRC USEW19800199
INDEX 01 14:20:07
TRACK 06 AUDIO
TITLE “Take the Time”
PERFORMER “Dream Theater”
ISRC USEW19800200
INDEX 01 24:54:42
TRACK 07 AUDIO
TITLE “Piano Solo”
PERFORMER “Dream Theater”
ISRC USEW19800201
INDEX 00 37:14:47
INDEX 01 37:14:52
TRACK 08 AUDIO
TITLE “Lines in the Sand”
PERFORMER “Dream Theater”
ISRC USEW19800202
INDEX 01 39:08:65
TRACK 09 AUDIO
TITLE “Scarred”
PERFORMER “Dream Theater”
ISRC USEW19800203
INDEX 01 52:22:25
TRACK 10 AUDIO
TITLE “A Change of Seasons IV: The Darkest of Winters”
PERFORMER “Dream Theater”
ISRC USEW19800204
INDEX 01 61:49:67
TRACK 11 AUDIO
TITLE “YTSE Jam”
PERFORMER “Dream Theater”
ISRC USEW19800205
INDEX 01 65:07:52
TRACK 12 AUDIO
TITLE “Mike Portnoy Drum Solo”
PERFORMER “Dream Theater”
ISRC USEW19800206
INDEX 01 69:17:27

REM GENRE “Progressive Metal”
REM DATE 1998
REM DISCID A0124B0B
REM COMMENT “ExactAudioCopy v1.0b1”
CATALOG 0075596230827
PERFORMER “Dream Theater”
TITLE “Once In A LIVEtime, Disc 2”
FILE “livetime2.flac” WAVE
TRACK 01 AUDIO
TITLE “Trial Of Tears”
PERFORMER “Dream Theater”
ISRC USEW19800207
INDEX 00 00:00:00
INDEX 01 00:00:32
TRACK 02 AUDIO
TITLE “Hollow Years”
PERFORMER “Dream Theater”
ISRC USEW19800208
INDEX 01 14:11:52
TRACK 03 AUDIO
TITLE “Take Away My Pain”
PERFORMER “Dream Theater”
ISRC USEW19800209
INDEX 01 21:13:22
TRACK 04 AUDIO
TITLE “Caught In A Web”
PERFORMER “Dream Theater”
ISRC USEW19800210
INDEX 01 27:30:12
TRACK 05 AUDIO
TITLE “Lie”
PERFORMER “Dream Theater”
ISRC USEW19800211
INDEX 01 32:46:30
TRACK 06 AUDIO
TITLE “Peruvian Skies”
PERFORMER “Dream Theater”
ISRC USEW19800212
INDEX 01 39:31:72
TRACK 07 AUDIO
TITLE “John Petrucci Guitar Solo”
PERFORMER “Dream Theater”
ISRC USEW19800213
INDEX 01 47:22:30
TRACK 08 AUDIO
TITLE “Pull Me Under”
PERFORMER “Dream Theater”
ISRC USEW19800213
INDEX 01 55:29:15
TRACK 09 AUDIO
TITLE “Metropolis”
PERFORMER “Dream Theater”
ISRC USEW19800215
INDEX 01 63:44:27
TRACK 10 AUDIO
TITLE “Learning To Live”
PERFORMER “Dream Theater”
ISRC USEW19800216
INDEX 01 70:00:52
TRACK 11 AUDIO
TITLE “A Change Of Seasons VII: The Crimson Sunset”
PERFORMER “Dream Theater”
ISRC USEW19800216
INDEX 01 74:14:05


Leave a Reply

Your email address will not be published. Required fields are marked *

This site uses Akismet to reduce spam. Learn how your comment data is processed.