Dream Theater – Official Bootleg: When Dream And Day Unite Demos 1987-1989




[Total: 0    Average: 0/5]

Artist: Dream Theater
Year: 2004
Genre: Metal
Notes: Discogs
Add. Notes:
Cover incl.: Yes
Encoder: FLAC
Bitrate: ~900 kBit/s (44.1 kHz/16 Bit/s)
Log & Cue incl.: Yes
Size: 963,7 MB
Password: “slam” (without ” “)


All Downloads/Hosters are compatible

Download 1
Share-online.biz
KatFile.com
Rapidgator.net
Download 2
Share-online.biz
KatFile.com
Rapidgator.net

Tracklist:

Instrumental Demos · 1987
1-1 - Afterlife - 5:23
1-2 - The Killing Hand - 8:04
1-3 - The Ones Who Help To Set The Sun - 7:25
1-4 - Ytse Jam - 5:54
1-5 - Cry For Freedom - 6:45
1-6 - Ressurection Of Ernie - 6:44
1-7 - Drum Solo - 1:52
1-8 - A Fortune In Lies - 4:31
1-9 - Only A Matter Of Time - 6:26
Early Charlie Demos · 1987
1-10 - A Fortune In Lies - 5:21
1-11 - Afterlife - 5:40
1-12 - The Ones Who Help To Set The Sun - 7:29

WDADU Pre-Production Demos · 1988
2-1 - A Fortune In Lies - 5:20
2-2 - Afterlife - 5:40
2-3 - Ytse Jam - 5:50
2-4 - Only A Matter Of Time - 6:52
2-5 - The Ones Who Help To Set The Sun - 7:34
2-6 - The Killing Hand - 8:25
2-7 - Light Fuse And Get Away (Instrumental Version) - 
7:52
XMas Demos · 1988
2-8 - To Live Forever - 4:29
2-9 - Mission: Impossible - 1:25
2-10 - Golden Slumbers / Carry That Weight / The End - 
6:13
2-11 - O Holy Night - 4:10
2-12 - A Vision '89 - 8:01
2-13 - Untitled - 2:10

EAC-Log, CUE-Sheed & NFO:

Click to open spoiler
Exact Audio Copy V1.0 beta 1 from 15. November 2010

EAC extraction logfile from 24. December 2010, 10:53

Dream Theater / When Dream And Day Unite Demos [Disc 1]

Used drive : PLEXTOR CD-R PX-240A Adapter: 1 ID: 1

Read mode : Secure
Utilize accurate stream : Yes
Defeat audio cache : Yes
Make use of C2 pointers : No

Read offset correction : 6
Overread into Lead-In and Lead-Out : No
Fill up missing offset samples with silence : Yes
Delete leading and trailing silent blocks : No
Null samples used in CRC calculations : Yes
Used interface : Installed external ASPI interface

Used output format : Internal WAV Routines
Sample format : 44.100 Hz; 16 Bit; Stereo

TOC of the extracted CD

Track | Start | Length | Start sector | End sector
———————————————————
1 | 0:00.00 | 5:23.33 | 0 | 24257
2 | 5:23.33 | 8:06.19 | 24258 | 60726
3 | 13:29.52 | 7:25.19 | 60727 | 94120
4 | 20:54.71 | 5:54.18 | 94121 | 120688
5 | 26:49.14 | 6:46.29 | 120689 | 151167
6 | 33:35.43 | 6:44.57 | 151168 | 181524
7 | 40:20.25 | 1:53.34 | 181525 | 190033
8 | 42:13.59 | 4:31.04 | 190034 | 210362
9 | 46:44.63 | 6:26.65 | 210363 | 239377
10 | 53:11.53 | 5:21.52 | 239378 | 263504
11 | 58:33.30 | 5:41.27 | 263505 | 289106
12 | 64:14.57 | 7:29.22 | 289107 | 322803

Range status and errors

Selected range

Filename Z:\data\mp3\Seeding\Dream Theater\Official Bootlegs\2004-When Dream And Day Unite Demos 1987-1989\unitedemos1.wav

Peak level 98.8 %
Extraction speed 0.8 X
Range quality 99.9 %
Test CRC 4B586075
Copy CRC 4B586075
Copy OK

No errors occurred

AccurateRip summary

Track 1 accurately ripped (confidence 6) [F69BEA0E]
Track 2 accurately ripped (confidence 6) [8F63FEA3]
Track 3 accurately ripped (confidence 6) [482E3A5D]
Track 4 accurately ripped (confidence 6) [105EE52F]
Track 5 accurately ripped (confidence 6) [8796C813]
Track 6 accurately ripped (confidence 6) [87817A60]
Track 7 accurately ripped (confidence 6) [EB3A799D]
Track 8 accurately ripped (confidence 6) [5FD059AC]
Track 9 accurately ripped (confidence 6) [BBAAF0AD]
Track 10 accurately ripped (confidence 6) [ED030AF0]
Track 11 accurately ripped (confidence 6) [A53E629D]
Track 12 accurately ripped (confidence 6) [9D1A6070]

All tracks accurately ripped

End of status report

Exact Audio Copy V1.0 beta 1 from 15. November 2010

EAC extraction logfile from 24. December 2010, 10:54

Dream Theater / When Dream And Day Unite Demos [Disc 2]

Used drive : LITE-ON DVDRW LH-20A1L Adapter: 4 ID: 0

Read mode : Secure
Utilize accurate stream : Yes
Defeat audio cache : Yes
Make use of C2 pointers : No

Read offset correction : 6
Overread into Lead-In and Lead-Out : No
Fill up missing offset samples with silence : Yes
Delete leading and trailing silent blocks : No
Null samples used in CRC calculations : Yes
Used interface : Installed external ASPI interface

Used output format : Internal WAV Routines
Sample format : 44.100 Hz; 16 Bit; Stereo

TOC of the extracted CD

Track | Start | Length | Start sector | End sector
———————————————————
1 | 0:00.00 | 5:21.35 | 0 | 24109
2 | 5:21.35 | 5:40.45 | 24110 | 49654
3 | 11:02.05 | 5:51.60 | 49655 | 76039
4 | 16:53.65 | 6:52.05 | 76040 | 106944
5 | 23:45.70 | 7:35.38 | 106945 | 141107
6 | 31:21.33 | 8:25.52 | 141108 | 179034
7 | 39:47.10 | 7:54.16 | 179035 | 214600
8 | 47:41.26 | 4:29.26 | 214601 | 234801
9 | 52:10.52 | 1:25.39 | 234802 | 241215
10 | 53:36.16 | 6:14.11 | 241216 | 269276
11 | 59:50.27 | 4:11.14 | 269277 | 288115
12 | 64:01.41 | 8:31.54 | 288116 | 326494
13 | 72:33.20 | 2:10.12 | 326495 | 336256

Range status and errors

Selected range

Filename Z:\data\mp3\Seeding\Dream Theater\Official Bootlegs\2004-When Dream And Day Unite Demos 1987-1989\unitedemos2.wav

Peak level 98.8 %
Extraction speed 0.1 X
Range quality 100.0 %
Test CRC 133ECBAF
Copy CRC 133ECBAF
Copy OK

No errors occurred

AccurateRip summary

Track 1 accurately ripped (confidence 6) [5D0B95CB]
Track 2 accurately ripped (confidence 6) [CB7EEB04]
Track 3 accurately ripped (confidence 6) [A8A44471]
Track 4 accurately ripped (confidence 6) [F16E59EB]
Track 5 accurately ripped (confidence 6) [6E5D3938]
Track 6 accurately ripped (confidence 6) [991C5DCF]
Track 7 accurately ripped (confidence 6) [072B585A]
Track 8 accurately ripped (confidence 6) [C705819F]
Track 9 accurately ripped (confidence 7) [58B909D8]
Track 10 accurately ripped (confidence 7) [ACD4BCFA]
Track 11 accurately ripped (confidence 6) [164A7866]
Track 12 accurately ripped (confidence 6) [9745B5F2]
Track 13 accurately ripped (confidence 7) [E11F4DC9]

All tracks accurately ripped

End of status report

REM GENRE “Progressive Metal”
REM DATE 2004
REM DISCID 9410D00C
REM COMMENT “ExactAudioCopy v1.0b1”
PERFORMER “Dream Theater”
TITLE “Official Bootleg: When Dream And Day Unite Demos CD 1”
FILE “unitedemos1.flac” WAVE
TRACK 01 AUDIO
TITLE “Afterlife [Instrumental]”
PERFORMER “Dream Theater”
INDEX 01 00:00:00
TRACK 02 AUDIO
TITLE “The Killing Hand [Instrumental]”
PERFORMER “Dream Theater”
INDEX 01 05:23:33
TRACK 03 AUDIO
TITLE “The Ones Who Help To Set The Sun [Instrumental]”
PERFORMER “Dream Theater”
INDEX 00 13:28:00
INDEX 01 13:29:52
TRACK 04 AUDIO
TITLE “Ytse Jam [Instrumental]”
PERFORMER “Dream Theater”
INDEX 01 20:54:71
TRACK 05 AUDIO
TITLE “Cry For Freedom [Instrumental]”
PERFORMER “Dream Theater”
INDEX 01 26:49:14
TRACK 06 AUDIO
TITLE “Resurrection Of Ernie [Instrumental]”
PERFORMER “Dream Theater”
INDEX 00 33:34:57
INDEX 01 33:35:43
TRACK 07 AUDIO
TITLE “Drum Solo [Portnoy]”
PERFORMER “Dream Theater”
INDEX 00 40:17:52
INDEX 01 40:20:25
TRACK 08 AUDIO
TITLE “A Fortune In Lies [Instrumental]”
PERFORMER “Dream Theater”
INDEX 00 42:12:51
INDEX 01 42:13:59
TRACK 09 AUDIO
TITLE “Only A Matter Of Time [Instrumental]”
PERFORMER “Dream Theater”
INDEX 01 46:44:63
TRACK 10 AUDIO
TITLE “A Fortune In Lies”
PERFORMER “Dream Theater”
INDEX 00 53:11:13
INDEX 01 53:11:53
TRACK 11 AUDIO
TITLE “Afterlife”
PERFORMER “Dream Theater”
INDEX 01 58:33:30
TRACK 12 AUDIO
TITLE “The Ones Who Help To Set The Sun”
PERFORMER “Dream Theater”
INDEX 00 64:12:35
INDEX 01 64:14:57

REM GENRE “Progressive Metal”
REM DATE 2004
REM DISCID B911830D
REM COMMENT “ExactAudioCopy v1.0b1”
PERFORMER “Dream Theater”
TITLE “Official Bootleg: When Dream And Day Unite Demos CD 2”
FILE “unitedemos2.flac” WAVE
TRACK 01 AUDIO
TITLE “A Fortune In Lies”
PERFORMER “Dream Theater”
INDEX 01 00:00:00
TRACK 02 AUDIO
TITLE “Afterlife”
PERFORMER “Dream Theater”
INDEX 00 05:20:56
INDEX 01 05:21:35
TRACK 03 AUDIO
TITLE “Ytse Jam”
PERFORMER “Dream Theater”
INDEX 00 11:01:49
INDEX 01 11:02:05
TRACK 04 AUDIO
TITLE “Only A Matter Of Time”
PERFORMER “Dream Theater”
INDEX 00 16:51:65
INDEX 01 16:53:65
TRACK 05 AUDIO
TITLE “The Ones Who Help To Set The Sun”
PERFORMER “Dream Theater”
INDEX 01 23:45:70
TRACK 06 AUDIO
TITLE “The Killing Hand”
PERFORMER “Dream Theater”
INDEX 00 31:20:38
INDEX 01 31:21:33
TRACK 07 AUDIO
TITLE “Light Fuse And Get Away [Instrumental]”
PERFORMER “Dream Theater”
INDEX 00 39:45:10
INDEX 01 39:47:10
TRACK 08 AUDIO
TITLE “To Live Forever”
PERFORMER “Dream Theater”
INDEX 00 47:39:25
INDEX 01 47:41:26
TRACK 09 AUDIO
TITLE “Mission: Impossible”
PERFORMER “Dream Theater”
INDEX 01 52:10:52
TRACK 10 AUDIO
TITLE “Golden Slumbers / Carry That Weight / The End”
PERFORMER “Dream Theater”
INDEX 00 53:33:64
INDEX 01 53:36:16
TRACK 11 AUDIO
TITLE “O Holy Night”
PERFORMER “Dream Theater”
INDEX 00 59:47:61
INDEX 01 59:50:27
TRACK 12 AUDIO
TITLE “A Vision ’89”
PERFORMER “Dream Theater”
INDEX 00 64:00:15
INDEX 01 64:01:41
TRACK 13 AUDIO
TITLE “


Spread the Download

Leave a Reply

Your email address will not be published. Required fields are marked *

Enter the text from the image below
 

This site uses Akismet to reduce spam. Learn how your comment data is processed.