Dream Theater – Official Bootleg: Tokyo, Japan 10/28/95




Artist: Dream Theater
Year: 2004
Genre: Metal
Notes: Discogs
Add. Notes:
Cover incl.: Yes
Encoder: FLAC
Bitrate: ~800 kBit/s (44.1 kHz/16 Bit/s)
Log & Cue incl.: Yes
Size: 835,85 MB
Password: “slam” (without ” “)


All Downloads/Hosters are compatible

Download 1
Turbobit.net
NitroFlare.com
KatFile.com
Rapidgator.net
Download 2
Turbobit.net
NitroFlare.com
KatFile.com
Rapidgator.net

Tracklist:

1-1 - Intro - 1:06
1-2 - Under A Glass Moon - 7:41
1-3 - The Mirror - 6:52
1-4 - Lie - 6:53
1-5 - Lifting Shadows Off A Dream - 8:21
1-6 - Instrumental Mini Medley - 7:14
1-6.1 - The Rover - 
1-6.2 - Killers - 
1-6.3 - Damage Inc. - 
1-6.4 - In The Flesh - 
1-6.5 - Heart Of The Sunrise - 
1-7 - Innocence Faded - 5:36
1-8 - A Change Of Seasons - 23:10
2-1 - Lost Without You - 4:41
2-2 - Surrounded - 6:00
2-3 - Keyboard Solo - 4:33
2-4 - Erotomania - 1:47
2-5 - Drum Solo - 4:02
2-6 - Erotomania (Cont.) - 5:11
2-7 - Voices - 9:42
2-8 - The Silent Man - 5:10
2-9 - Pull Me Under - 8:51
1st Encore
2-10 - Perfect Strangers - 6:37
2nd Encore
2-11 - Wait For Sleep (Acoustic Version) - 3:24
2-12 - Learning To Live - 13:22

EAC-Log, CUE-Sheed & NFO:

Click to open spoiler
Exact Audio Copy V1.0 beta 1 from 15. November 2010

EAC extraction logfile from 24. December 2010, 16:03

Dream Theater / Tokyo, Japan – 10/28/95 [Disc 1]

Used drive : PLEXTOR CD-R PX-240A Adapter: 1 ID: 1

Read mode : Secure
Utilize accurate stream : Yes
Defeat audio cache : Yes
Make use of C2 pointers : No

Read offset correction : 6
Overread into Lead-In and Lead-Out : No
Fill up missing offset samples with silence : Yes
Delete leading and trailing silent blocks : No
Null samples used in CRC calculations : Yes
Used interface : Installed external ASPI interface

Used output format : Internal WAV Routines
Sample format : 44.100 Hz; 16 Bit; Stereo

TOC of the extracted CD

Track | Start | Length | Start sector | End sector
———————————————————
1 | 0:00.00 | 1:05.66 | 0 | 4940
2 | 1:05.66 | 7:41.04 | 4941 | 39519
3 | 8:46.70 | 6:52.23 | 39520 | 70442
4 | 15:39.18 | 6:52.70 | 70443 | 101412
5 | 22:32.13 | 8:21.18 | 101413 | 139005
6 | 30:53.31 | 7:14.44 | 139006 | 171599
7 | 38:08.00 | 5:35.61 | 171600 | 196785
8 | 43:43.61 | 23:10.38 | 196786 | 301073

Range status and errors

Selected range

Filename Z:\data\mp3\Seeding\Dream Theater\Official Bootlegs\2004-Tokyo, Japan 10-28-95\tokyo1.wav

Peak level 98.8 %
Extraction speed 2.6 X
Range quality 99.9 %
Test CRC 120DAE15
Copy CRC 120DAE15
Copy OK

No errors occurred

AccurateRip summary

Track 1 accurately ripped (confidence 10) [1EC80710]
Track 2 accurately ripped (confidence 10) [6E50D7CB]
Track 3 accurately ripped (confidence 10) [1E08C268]
Track 4 accurately ripped (confidence 10) [89E7E7E3]
Track 5 accurately ripped (confidence 10) [5F5FD934]
Track 6 accurately ripped (confidence 10) [2D014803]
Track 7 accurately ripped (confidence 10) [40262689]
Track 8 accurately ripped (confidence 10) [4FE8EBFF]

All tracks accurately ripped

End of status report

Exact Audio Copy V1.0 beta 1 from 15. November 2010

EAC extraction logfile from 24. December 2010, 16:03

Dream Theater / (1995-10-28)-Live at NHK Hall in Tokyo, Japan

Used drive : LITE-ON DVDRW LH-20A1L Adapter: 4 ID: 0

Read mode : Secure
Utilize accurate stream : Yes
Defeat audio cache : Yes
Make use of C2 pointers : No

Read offset correction : 6
Overread into Lead-In and Lead-Out : No
Fill up missing offset samples with silence : Yes
Delete leading and trailing silent blocks : No
Null samples used in CRC calculations : Yes
Used interface : Installed external ASPI interface

Used output format : Internal WAV Routines
Sample format : 44.100 Hz; 16 Bit; Stereo

TOC of the extracted CD

Track | Start | Length | Start sector | End sector
———————————————————
1 | 0:00.00 | 4:40.70 | 0 | 21069
2 | 4:40.70 | 5:59.59 | 21070 | 48053
3 | 10:40.54 | 4:32.50 | 48054 | 68503
4 | 15:13.29 | 1:46.52 | 68504 | 76505
5 | 17:00.06 | 4:02.25 | 76506 | 94680
6 | 21:02.31 | 5:11.49 | 94681 | 118054
7 | 26:14.05 | 9:42.28 | 118055 | 161732
8 | 35:56.33 | 5:10.13 | 161733 | 184995
9 | 41:06.46 | 8:50.66 | 184996 | 224811
10 | 49:57.37 | 6:36.68 | 224812 | 254579
11 | 56:34.30 | 3:24.56 | 254580 | 269935
12 | 59:59.11 | 13:21.70 | 269936 | 330080

Range status and errors

Selected range

Filename Z:\data\mp3\Seeding\Dream Theater\Official Bootlegs\2004-Tokyo, Japan 10-28-95\tokyo2.wav

Peak level 98.8 %
Extraction speed 0.7 X
Range quality 100.0 %
Test CRC 502C0831
Copy CRC 502C0831
Copy OK

No errors occurred

AccurateRip summary

Track 1 accurately ripped (confidence 10) [248AD5E8]
Track 2 accurately ripped (confidence 10) [6167DE52]
Track 3 accurately ripped (confidence 10) [4CE85943]
Track 4 accurately ripped (confidence 10) [E5B91541]
Track 5 accurately ripped (confidence 10) [D56E3B22]
Track 6 accurately ripped (confidence 10) [A965E84D]
Track 7 accurately ripped (confidence 10) [26895601]
Track 8 accurately ripped (confidence 10) [A847240A]
Track 9 accurately ripped (confidence 10) [C0D1304A]
Track 10 accurately ripped (confidence 10) [859C8867]
Track 11 accurately ripped (confidence 10) [75F43389]
Track 12 accurately ripped (confidence 10) [F3034954]

All tracks accurately ripped

End of status report

REM GENRE “Progressive Metal”
REM DATE 2004
REM DISCID 680FAE08
REM COMMENT “ExactAudioCopy v1.0b1”
PERFORMER “Dream Theater”
TITLE “Official Bootleg: Live At NHK Hall In Tokyo, Japan – 10/28/95 CD 1”
FILE “tokyo1.flac” WAVE
TRACK 01 AUDIO
TITLE “Intro”
PERFORMER “Dream Theater”
INDEX 01 00:00:00
TRACK 02 AUDIO
TITLE “Under A Glass Moon”
PERFORMER “Dream Theater”
INDEX 01 01:05:66
TRACK 03 AUDIO
TITLE “The Mirror”
PERFORMER “Dream Theater”
INDEX 01 08:46:70
TRACK 04 AUDIO
TITLE “Lie”
PERFORMER “Dream Theater”
INDEX 01 15:39:18
TRACK 05 AUDIO
TITLE “Lifting Shadows Off A Dream”
PERFORMER “Dream Theater”
INDEX 01 22:32:13
TRACK 06 AUDIO
TITLE “Instrumental Mini Medley – The Rover / Killers / Damage Inc. / In The Flesh /…”
PERFORMER “Dream Theater”
INDEX 01 30:53:31
TRACK 07 AUDIO
TITLE “Innocence Faded”
PERFORMER “Dream Theater”
INDEX 01 38:08:00
TRACK 08 AUDIO
TITLE “A Change Of Seasons”
PERFORMER “Dream Theater”
INDEX 01 43:43:61

REM GENRE “Progressive Metal”
REM DATE 2004
REM DISCID AE11310C
REM COMMENT “ExactAudioCopy v1.0b1”
PERFORMER “Dream Theater”
TITLE “Official Bootleg: Live At NHK Hall In Tokyo, Japan – 10/28/95 CD 2”
FILE “tokyo2.flac” WAVE
TRACK 01 AUDIO
TITLE “Lost Without You”
PERFORMER “Dream Theater”
INDEX 01 00:00:00
TRACK 02 AUDIO
TITLE “Surrounded”
PERFORMER “Dream Theater”
INDEX 01 04:40:70
TRACK 03 AUDIO
TITLE “Keyboard Solo [Sherinian]”
PERFORMER “Dream Theater”
INDEX 01 10:40:54
TRACK 04 AUDIO
TITLE “Erotomania”
PERFORMER “Dream Theater”
INDEX 01 15:13:29
TRACK 05 AUDIO
TITLE “Drum Solo [Portnoy]”
PERFORMER “Dream Theater”
INDEX 01 17:00:06
TRACK 06 AUDIO
TITLE “Erotomania [Continued]”
PERFORMER “Dream Theater”
INDEX 01 21:02:31
TRACK 07 AUDIO
TITLE “Voices”
PERFORMER “Dream Theater”
INDEX 01 26:14:05
TRACK 08 AUDIO
TITLE “The Silent Man”
PERFORMER “Dream Theater”
INDEX 01 35:56:33
TRACK 09 AUDIO
TITLE “Pull Me Under”
PERFORMER “Dream Theater”
INDEX 01 41:06:46
TRACK 10 AUDIO
TITLE “Perfect Strangers”
PERFORMER “Dream Theater”
INDEX 01 49:57:37
TRACK 11 AUDIO
TITLE “Wait For Sleep [Acoustic]”
PERFORMER “Dream Theater”
INDEX 01 56:34:30
TRACK 12 AUDIO
TITLE “Learning To Live”
PERFORMER “Dream Theater”
INDEX 01 59:59:11


Leave a Reply

Your email address will not be published. Required fields are marked *

Enter the text from the image below
 

This site uses Akismet to reduce spam. Learn how your comment data is processed.