Dream Theater – Official Bootleg: The Number Of The Beast




Artist: Dream Theater
Year: 2005
Genre: Metal
Notes: Discogs
Add. Notes:
Cover incl.: Yes
Encoder: FLAC
Bitrate: ~1000 kBit/s (44.1 kHz/16 Bit/s)
Log & Cue incl.: Yes
Size: 328,42 MB
Password: “slam” (without ” “)


All Downloads/Hosters are compatible

Download 1
KatFile.com
Turbobit.net
FileFactory.com
Rapidgator.net
Download 2
KatFile.com
Turbobit.net
FileFactory.com
Rapidgator.net

Tracklist:

1 Invaders 4:18
2 Children Of The Damned 5:06
3 The Prisoner 6:27
4 22 Acacia Avenue 6:50
5 The Number Of The Beast 4:28
6 Run To The Hills 4:05
7 Gangland 6:30
8 Hallowed Be Thy Name 7:59

EAC-Log, CUE-Sheed & NFO:

Click to open spoiler
Exact Audio Copy V1.0 beta 1 from 15. November 2010

EAC extraction logfile from 24. December 2010, 15:16

Dream Theater / The Number Of The Beast

Used drive : LITE-ON DVDRW LH-20A1L Adapter: 4 ID: 0

Read mode : Secure
Utilize accurate stream : Yes
Defeat audio cache : Yes
Make use of C2 pointers : No

Read offset correction : 6
Overread into Lead-In and Lead-Out : No
Fill up missing offset samples with silence : Yes
Delete leading and trailing silent blocks : No
Null samples used in CRC calculations : Yes
Used interface : Installed external ASPI interface

Used output format : Internal WAV Routines
Sample format : 44.100 Hz; 16 Bit; Stereo

TOC of the extracted CD

Track | Start | Length | Start sector | End sector
———————————————————
1 | 0:00.00 | 4:18.22 | 0 | 19371
2 | 4:18.22 | 5:06.30 | 19372 | 42351
3 | 9:24.52 | 6:27.46 | 42352 | 71422
4 | 15:52.23 | 6:50.69 | 71423 | 102241
5 | 22:43.17 | 4:28.68 | 102242 | 122409
6 | 27:12.10 | 4:04.74 | 122410 | 140783
7 | 31:17.09 | 6:30.43 | 140784 | 170076
8 | 37:47.52 | 7:59.18 | 170077 | 206019

Range status and errors

Selected range

Filename Z:\data\mp3\Seeding\Dream Theater\Official Bootlegs\2005-The Number Of The Beast\beast.wav

Peak level 100.0 %
Extraction speed 1.2 X
Range quality 100.0 %
Test CRC 0EBD4973
Copy CRC 0EBD4973
Copy OK

No errors occurred

AccurateRip summary

Track 1 accurately ripped (confidence 2) [2222C82C]
Track 2 accurately ripped (confidence 2) [D8E1A002]
Track 3 accurately ripped (confidence 2) [875A33E0]
Track 4 accurately ripped (confidence 2) [6F711844]
Track 5 accurately ripped (confidence 2) [14CD1BE3]
Track 6 accurately ripped (confidence 2) [55B48CFA]
Track 7 accurately ripped (confidence 2) [61BEA904]
Track 8 accurately ripped (confidence 2) [F0B778B7]

All tracks accurately ripped

End of status report

REM GENRE “Progressive Metal”
REM DATE 2005
REM DISCID 760ABA08
REM COMMENT “ExactAudioCopy v1.0b1”
PERFORMER “Dream Theater”
TITLE “Official Bootleg: The Number Of The Beast”
FILE “beast.flac” WAVE
TRACK 01 AUDIO
TITLE “Invaders”
PERFORMER “Dream Theater”
FLAGS DCP
INDEX 01 00:00:00
TRACK 02 AUDIO
TITLE “Children Of The Damned”
PERFORMER “Dream Theater”
FLAGS DCP
INDEX 01 04:18:22
TRACK 03 AUDIO
TITLE “The Prisoner”
PERFORMER “Dream Theater”
FLAGS DCP
INDEX 01 09:24:52
TRACK 04 AUDIO
TITLE “22 Acacia Avenue”
PERFORMER “Dream Theater”
FLAGS DCP
INDEX 01 15:52:23
TRACK 05 AUDIO
TITLE “The Number Of The Beast”
PERFORMER “Dream Theater”
FLAGS DCP
INDEX 01 22:43:17
TRACK 06 AUDIO
TITLE “Run To The Hills”
PERFORMER “Dream Theater”
FLAGS DCP
INDEX 01 27:12:10
TRACK 07 AUDIO
TITLE “Gangland”
PERFORMER “Dream Theater”
FLAGS DCP
INDEX 01 31:17:09
TRACK 08 AUDIO
TITLE “Hallowed Be Thy Name”
PERFORMER “Dream Theater”
FLAGS DCP
INDEX 01 37:47:52


Leave a Reply

Your email address will not be published. Required fields are marked *

This site uses Akismet to reduce spam. Learn how your comment data is processed.