Dream Theater – Official Bootleg: The Making Of Falling Into Infinity




Artist: Dream Theater
Year: 2009
Genre: Metal
Notes: Discogs
Add. Notes:
Cover incl.: Yes
Encoder: FLAC
Bitrate: ~800 kBit/s (44.1 kHz/16 Bit/s)
Log & Cue incl.: Yes
Size: 417 MB
Password: “slam” (without ” “)


All Downloads/Hosters are compatible

Download 1
KatFile.com
Turbobit.net
FileFactory.com
Rapidgator.net
Download 2
KatFile.com
Turbobit.net
FileFactory.com
Rapidgator.net

Tracklist:

New Millennium
1 - Basic Tracks 
2 - Piano, Acoustic Guitar, Stick And 
7-String Guitar 
Overdubs 
You Not Me
3 - Basic Tracks 
4 - Strings, Piano, Vocals And Key 
Overdubs 
Peruvian Skies
5 - Basic Tracks 
6 - Rhodes, Mellotron, Acoustic 
Guitar And Vocal 
Overdubs 
Hollow Years
7 - Basic Tracks 
8 - Acoustic, Edge And Classical 
Guitar And Vocals 
Overdubs 
Burning My Soul
9 - Basic Tracks 
10 - Guitar, Key, Vocals, Talk Box 
And Whisper Overdubs 
Hell's Kitchen
11 - Writing The Finale 
Lines In The Sand
12 - Intro, Key, Piano And String 
Overdubs 
13 - Bass, Guitar, Synth, And Vocal 
Overdubs 
14 - Doug Pinnick Vocals 
Take Away My Pain
15 - Alternate Take 
16 - Basic Tracks 
17 - Space Guitar, Hawaiin Keys, 
Heavy Keys, And Vocal 
Overdubs 
Just Let Me Breathe
18 - Basic Tracks 
19 - Feedback And Rhythm Guitars, 
Lead Guitar And 
Keys, Vocal Overdubs 
Anna Lee
20 - Derek Noodling At The Piano 
21 - Basic Tracks 
22 - Mellotron, Acoustic And Leslie 
Guitars 
Trial Of Tears
23 - Basic Tracks 
24 - Lead Guitar, Bass, Acoustic 
Guitar And Piano 
Overdubs 
25 - The End (?)

EAC-Log, CUE-Sheed & NFO:

Click to open spoiler
Exact Audio Copy V1.0 beta 1 from 15. November 2010

EAC extraction logfile from 24. December 2010, 10:33

Dream Theater / Official Bootleg: The Making of Falling Into Infinity

Used drive : PLEXTOR CD-R PX-240A Adapter: 1 ID: 1

Read mode : Secure
Utilize accurate stream : Yes
Defeat audio cache : Yes
Make use of C2 pointers : No

Read offset correction : 6
Overread into Lead-In and Lead-Out : No
Fill up missing offset samples with silence : Yes
Delete leading and trailing silent blocks : No
Null samples used in CRC calculations : Yes
Used interface : Installed external ASPI interface

Used output format : Internal WAV Routines
Sample format : 44.100 Hz; 16 Bit; Stereo

TOC of the extracted CD

Track | Start | Length | Start sector | End sector
———————————————————
1 | 0:00.00 | 1:47.10 | 0 | 8034
2 | 1:47.10 | 3:17.17 | 8035 | 22826
3 | 5:04.27 | 2:04.28 | 22827 | 32154
4 | 7:08.55 | 3:35.50 | 32155 | 48329
5 | 10:44.30 | 1:38.60 | 48330 | 55739
6 | 12:23.15 | 5:18.07 | 55740 | 79596
7 | 17:41.22 | 3:58.05 | 79597 | 97451
8 | 21:39.27 | 4:28.33 | 97452 | 117584
9 | 26:07.60 | 1:14.17 | 117585 | 123151
10 | 27:22.02 | 3:47.05 | 123152 | 140181
11 | 31:09.07 | 6:07.68 | 140182 | 167774
12 | 37:17.00 | 3:49.42 | 167775 | 184991
13 | 41:06.42 | 3:27.20 | 184992 | 200536
14 | 44:33.62 | 3:01.63 | 200537 | 214174
15 | 47:35.50 | 6:12.22 | 214175 | 242096
16 | 53:47.72 | 2:07.65 | 242097 | 251686
17 | 55:55.62 | 2:16.25 | 251687 | 261911
18 | 58:12.12 | 1:02.55 | 261912 | 266616
19 | 59:14.67 | 2:28.00 | 266617 | 277716
20 | 61:42.67 | 2:14.20 | 277717 | 287786
21 | 63:57.12 | 3:46.03 | 287787 | 304739
22 | 67:43.15 | 2:55.35 | 304740 | 317899
23 | 70:38.50 | 2:11.30 | 317900 | 327754
24 | 72:50.05 | 2:51.70 | 327755 | 340649
25 | 75:42.00 | 0:23.17 | 340650 | 342391

Range status and errors

Selected range

Filename Z:\data\mp3\Seeding\Dream Theater\Official Bootlegs\2009-The Making Of Falling Into Infinity\makingfii.wav

Peak level 99.9 %
Extraction speed 0.0 X
Range quality 99.9 %
Test CRC 90D74D00
Copy CRC 90D74D00
Copy OK

No errors occurred

AccurateRip summary

Track 1 accurately ripped (confidence 4) [DE707695]
Track 2 accurately ripped (confidence 4) [2B1DB912]
Track 3 accurately ripped (confidence 4) [AFD83124]
Track 4 accurately ripped (confidence 4) [AC68E4E6]
Track 5 accurately ripped (confidence 4) [FDEBF35F]
Track 6 accurately ripped (confidence 4) [80568A32]
Track 7 accurately ripped (confidence 4) [7404D183]
Track 8 accurately ripped (confidence 4) [9D034463]
Track 9 accurately ripped (confidence 4) [29112264]
Track 10 accurately ripped (confidence 4) [7A2CD1CA]
Track 11 accurately ripped (confidence 4) [A4CDACCF]
Track 12 accurately ripped (confidence 4) [63F86211]
Track 13 accurately ripped (confidence 4) [2D91825C]
Track 14 accurately ripped (confidence 4) [D01214F3]
Track 15 accurately ripped (confidence 4) [1D128F5F]
Track 16 accurately ripped (confidence 4) [E1FAF43F]
Track 17 accurately ripped (confidence 4) [4AFDAC35]
Track 18 accurately ripped (confidence 4) [6237F056]
Track 19 accurately ripped (confidence 4) [980F8FCD]
Track 20 accurately ripped (confidence 4) [18251AB4]
Track 21 accurately ripped (confidence 4) [D056C528]
Track 22 accurately ripped (confidence 4) [34AEB71E]
Track 23 accurately ripped (confidence 4) [489D4CAA]
Track 24 accurately ripped (confidence 4) [6457C92A]
Track 25 accurately ripped (confidence 4) [027DF55F]

All tracks accurately ripped

End of status report

REM GENRE “Progressive Metal”
REM DATE 2009
REM DISCID 7711D519
REM COMMENT “ExactAudioCopy v1.0b1”
PERFORMER “Dream Theater”
TITLE “Official Bootleg: The Making of Falling Into Infinity”
FILE “makingfii.flac” WAVE
TRACK 01 AUDIO
TITLE “New Millennium: Basic Tracks”
PERFORMER “Dream Theater”
INDEX 01 00:00:00
TRACK 02 AUDIO
TITLE “New Millennium: Piano, Acoustic Guitar, Stick and 7-string guitar overdubs”
PERFORMER “Dream Theater”
INDEX 01 01:47:10
TRACK 03 AUDIO
TITLE “You Not Me: Basic Tracks”
PERFORMER “Dream Theater”
INDEX 01 05:04:27
TRACK 04 AUDIO
TITLE “You Not Me: Strings, Piano, Vocals and Key overdubs”
PERFORMER “Dream Theater”
INDEX 01 07:08:55
TRACK 05 AUDIO
TITLE “Peruvian Skies: Basic Tracks”
PERFORMER “Dream Theater”
INDEX 01 10:44:30
TRACK 06 AUDIO
TITLE “Peruvian Skies: Rhodes, Mellotron, Acoustic Guitar and Vocals overdubs”
PERFORMER “Dream Theater”
INDEX 01 12:23:15
TRACK 07 AUDIO
TITLE “Hollow Years: Basic Tracks”
PERFORMER “Dream Theater”
INDEX 01 17:41:22
TRACK 08 AUDIO
TITLE “Hollow Years: Acoustic, Edge and Classical Guitar and Vocal overdubs”
PERFORMER “Dream Theater”
INDEX 01 21:39:27
TRACK 09 AUDIO
TITLE “Burning My Soul: Basic Tracks”
PERFORMER “Dream Theater”
INDEX 01 26:07:60
TRACK 10 AUDIO
TITLE “Burning My Soul: Guitar, Key, Vocals, Talk box and Whisper overdubs”
PERFORMER “Dream Theater”
INDEX 01 27:22:02
TRACK 11 AUDIO
TITLE “Hell’s Kitchen: Writing The Finale”
PERFORMER “Dream Theater”
INDEX 01 31:09:07
TRACK 12 AUDIO
TITLE “Lines In The Sand: Intro, Key, Piano, and String overdubs”
PERFORMER “Dream Theater”
INDEX 01 37:17:00
TRACK 13 AUDIO
TITLE “Lines In The Sand: Bass, Guitar, Synth, and Vocal overdubs”
PERFORMER “Dream Theater”
INDEX 01 41:06:42
TRACK 14 AUDIO
TITLE “Lines In The Sand: Doug Pinnick vocals”
PERFORMER “Dream Theater”
INDEX 01 44:33:62
TRACK 15 AUDIO
TITLE “Take Away My Pain: Alternate take”
PERFORMER “Dream Theater”
INDEX 01 47:35:50
TRACK 16 AUDIO
TITLE “Take Away My Pain: Basic Tracks”
PERFORMER “Dream Theater”
INDEX 01 53:47:72
TRACK 17 AUDIO
TITLE “Take Away My Pain: Space guitar, Hawaiin Keys, Heavy Keys, and Vocal overdubs”
PERFORMER “Dream Theater”
INDEX 01 55:55:62
TRACK 18 AUDIO
TITLE “Just Let Me Breathe: Basic Tracks”
PERFORMER “Dream Theater”
INDEX 01 58:12:12
TRACK 19 AUDIO
TITLE “Just Let Me Breathe: Feedback and Rhythm guitars, Lead Guitar and Keys, Vocal…”
PERFORMER “Dream Theater”
INDEX 01 59:14:67
TRACK 20 AUDIO
TITLE “Anna Lee: Derek Noodling At The Piano”
PERFORMER “Dream Theater”
INDEX 01 61:42:67
TRACK 21 AUDIO
TITLE “Anna Lee: Basic Tracks”
PERFORMER “Dream Theater”
INDEX 01 63:57:12
TRACK 22 AUDIO
TITLE “Anna Lee: Mellotron, Acoustic and Leslie Guitars, Slide Guitar overdubs”
PERFORMER “Dream Theater”
INDEX 01 67:43:15
TRACK 23 AUDIO
TITLE “Trial of Tears: Basic Tracks”
PERFORMER “Dream Theater”
INDEX 01 70:38:50
TRACK 24 AUDIO
TITLE “Trial of Tears: Lead Guitar, Bass, Acoustic Guitar and Piano overdubs”
PERFORMER “Dream Theater”
INDEX 01 72:50:05
TRACK 25 AUDIO
TITLE “Trial Of Tears: The End (?)”
PERFORMER “Dream Theater”
INDEX 01 75:42:00


Leave a Reply

Your email address will not be published. Required fields are marked *

This site uses Akismet to reduce spam. Learn how your comment data is processed.