Dream Theater – Official Bootleg: The Majesty Demos 1985-1986




[Total: 0    Average: 0/5]

Artist: Dream Theater
Year: 2003
Genre: Metal
Notes: Discogs
Add. Notes:
Cover incl.: Yes
Encoder: FLAC
Bitrate: ~1000 kBit/s (44.1 kHz/16 Bit/s)
Log & Cue incl.: Yes
Size: 533 MB
Password: “slam” (without ” “)


All Downloads/Hosters are compatible

Download 1
KatFile.com
Turbobit.net
FileFactory.com
Rapidgator.net
Download 2
KatFile.com
Turbobit.net
FileFactory.com
Rapidgator.net

Tracklist:

The Berklee Demos · 1985-1986
1 - Particle E. Motion - 1:38
2 - Another Won - 5:26
3 - The Saurus - 1:23
4 - Cry For Freedom - 6:31
5 - The School Song - 6:12
6 - YYZ - 4:03
7 - The Farandole - 3:16
8 - Two Far - 5:40
9 - Anti-Procrastination Song - 0:13
10 - Your Majesty - 3:56
11 - Solar System Race Song - 0:17
12 - I'm About To Faint Song - 0:09
13 - Mosquitos In Harmony Song - 
0:12
14 - John Thinks He's Randy Song - 
0:10
15 - Mike Thinks He's Dee Dee 
Ramone Introducing A 
Song Song - 0:16
16 - John Thinks He's Yngwie Song - 
0:15
17 - Gnos Sdrawkcab - 0:23
The Majesty Demos · 1986
18 - Another Won - 5:27
19 - Your Majesty - 3:45
20 - A Vision - 11:24
21 - Two Far - 5:25
22 - Vital Star - 5:44
23 - March Of The Tyrant - 5:34

EAC-Log, CUE-Sheed & NFO:

Click to open spoiler
Exact Audio Copy V1.0 beta 1 from 15. November 2010

EAC extraction logfile from 24. December 2010, 8:52

Dream Theater / The Majesty Demos 1985 – 1986

Used drive : LITE-ON DVDRW LH-20A1L Adapter: 4 ID: 0

Read mode : Secure
Utilize accurate stream : Yes
Defeat audio cache : Yes
Make use of C2 pointers : No

Read offset correction : 6
Overread into Lead-In and Lead-Out : No
Fill up missing offset samples with silence : Yes
Delete leading and trailing silent blocks : No
Null samples used in CRC calculations : Yes
Used interface : Installed external ASPI interface

Used output format : Internal WAV Routines
Sample format : 44.100 Hz; 16 Bit; Stereo

TOC of the extracted CD

Track | Start | Length | Start sector | End sector
———————————————————
1 | 0:00.07 | 1:38.11 | 7 | 7367
2 | 1:38.18 | 5:26.64 | 7368 | 31881
3 | 7:05.07 | 1:23.42 | 31882 | 38148
4 | 8:28.49 | 6:31.71 | 38149 | 67544
5 | 15:00.45 | 6:12.65 | 67545 | 95509
6 | 21:13.35 | 4:03.37 | 95510 | 113771
7 | 25:16.72 | 3:16.09 | 113772 | 128480
8 | 28:33.06 | 5:40.27 | 128481 | 154007
9 | 34:13.33 | 0:13.13 | 154008 | 154995
10 | 34:26.46 | 3:56.55 | 154996 | 172750
11 | 38:23.26 | 0:17.43 | 172751 | 174068
12 | 38:40.69 | 0:09.50 | 174069 | 174793
13 | 38:50.44 | 0:12.06 | 174794 | 175699
14 | 39:02.50 | 0:10.02 | 175700 | 176451
15 | 39:12.52 | 0:16.12 | 176452 | 177663
16 | 39:28.64 | 0:15.59 | 177664 | 178847
17 | 39:44.48 | 0:23.08 | 178848 | 180580
18 | 40:07.56 | 5:27.41 | 180581 | 205146
19 | 45:35.22 | 3:45.42 | 205147 | 222063
20 | 49:20.64 | 11:24.30 | 222064 | 273393
21 | 60:45.19 | 5:25.42 | 273394 | 297810
22 | 66:10.61 | 5:44.10 | 297811 | 323620
23 | 71:54.71 | 5:34.63 | 323621 | 348733

Range status and errors

Selected range

Filename Z:\data\mp3\Seeding\Dream Theater\Official Bootlegs\2003-Majesty Demos 1985-1986\majestydemos.wav

Peak level 100.0 %
Extraction speed 0.3 X
Range quality 100.0 %
Test CRC DC818A1D
Copy CRC DC818A1D
Copy OK

No errors occurred

AccurateRip summary

Track 1 accurately ripped (confidence 11) [3AE3CA53]
Track 2 accurately ripped (confidence 11) [783C88D9]
Track 3 accurately ripped (confidence 11) [41C61DBB]
Track 4 accurately ripped (confidence 11) [EECDCCDF]
Track 5 accurately ripped (confidence 11) [201FD661]
Track 6 accurately ripped (confidence 12) [61D8C058]
Track 7 accurately ripped (confidence 12) [73FF6B4E]
Track 8 accurately ripped (confidence 11) [8C521375]
Track 9 accurately ripped (confidence 11) [BBA91568]
Track 10 accurately ripped (confidence 11) [72697E72]
Track 11 accurately ripped (confidence 11) [15161837]
Track 12 accurately ripped (confidence 10) [61CFD423]
Track 13 accurately ripped (confidence 11) [F152B016]
Track 14 accurately ripped (confidence 11) [91E82758]
Track 15 accurately ripped (confidence 11) [47283F29]
Track 16 accurately ripped (confidence 11) [E6F71B18]
Track 17 accurately ripped (confidence 11) [3F925B80]
Track 18 accurately ripped (confidence 12) [0371F0A5]
Track 19 accurately ripped (confidence 12) [8F1FDACF]
Track 20 accurately ripped (confidence 12) [343C8020]
Track 21 accurately ripped (confidence 12) [BCF9D250]
Track 22 accurately ripped (confidence 13) [7B027D7F]
Track 23 accurately ripped (confidence 11) [B4C43B65]

All tracks accurately ripped

End of status report

REM GENRE “Progressive Metal”
REM DATE 2003
REM DISCID 2D122917
REM COMMENT “ExactAudioCopy v1.0b1”
PERFORMER “Dream Theater”
TITLE “Official Bootleg: The Majesty Demos 1985-1986”
FILE “majestydemos.flac” WAVE
TRACK 01 AUDIO
TITLE “Particle E. Motion”
PERFORMER “Dream Theater”
INDEX 00 00:00:00
INDEX 01 00:00:07
TRACK 02 AUDIO
TITLE “Another Won (instrumental version)”
PERFORMER “Dream Theater”
INDEX 00 01:38:14
INDEX 01 01:38:18
TRACK 03 AUDIO
TITLE “The Saurus”
PERFORMER “Dream Theater”
INDEX 00 07:04:65
INDEX 01 07:05:07
TRACK 04 AUDIO
TITLE “Cry For Freedom”
PERFORMER “Dream Theater”
INDEX 00 08:28:44
INDEX 01 08:28:49
TRACK 05 AUDIO
TITLE “The Scholl Song”
PERFORMER “Dream Theater”
INDEX 00 14:59:50
INDEX 01 15:00:45
TRACK 06 AUDIO
TITLE “YYZ”
PERFORMER “Dream Theater”
INDEX 00 21:13:32
INDEX 01 21:13:35
TRACK 07 AUDIO
TITLE “The Farandole”
PERFORMER “Dream Theater”
INDEX 00 25:16:00
INDEX 01 25:16:72
TRACK 08 AUDIO
TITLE “Two Far (instrumental version)”
PERFORMER “Dream Theater”
INDEX 00 28:32:18
INDEX 01 28:33:06
TRACK 09 AUDIO
TITLE “Anti-Procrastination Song”
PERFORMER “Dream Theater”
INDEX 00 34:11:49
INDEX 01 34:13:33
TRACK 10 AUDIO
TITLE “Your Majesty (instrumental version)”
PERFORMER “Dream Theater”
INDEX 01 34:26:46
TRACK 11 AUDIO
TITLE “Solar System Race Song”
PERFORMER “Dream Theater”
INDEX 01 38:23:26
TRACK 12 AUDIO
TITLE “I’m About To Faint Song”
PERFORMER “Dream Theater”
INDEX 01 38:40:69
TRACK 13 AUDIO
TITLE “Mosquitos In Harmony Song”
PERFORMER “Dream Theater”
INDEX 01 38:50:44
TRACK 14 AUDIO
TITLE “John Thinks He’s Randy Song”
PERFORMER “Dream Theater”
INDEX 01 39:02:50
TRACK 15 AUDIO
TITLE “Mike Thinks He’s Dee Dee Ramone Introducing A Song Song”
PERFORMER “Dream Theater”
INDEX 01 39:12:52
TRACK 16 AUDIO
TITLE “John Thinks He’s Yngwie Song”
PERFORMER “Dream Theater”
INDEX 01 39:28:64
TRACK 17 AUDIO
TITLE “Gnos Sdrawkcab”
PERFORMER “Dream Theater”
INDEX 01 39:44:48
TRACK 18 AUDIO
TITLE “Another Won”
PERFORMER “Dream Theater”
INDEX 00 40:05:24
INDEX 01 40:07:56
TRACK 19 AUDIO
TITLE “Your Majesty”
PERFORMER “Dream Theater”
INDEX 00 45:35:16
INDEX 01 45:35:22
TRACK 20 AUDIO
TITLE “A Vision”
PERFORMER “Dream Theater”
INDEX 00 49:20:58
INDEX 01 49:20:64
TRACK 21 AUDIO
TITLE “Two Far”
PERFORMER “Dream Theater”
INDEX 00 60:43:44
INDEX 01 60:45:19
TRACK 22 AUDIO
TITLE “Vital Star”
PERFORMER “Dream Theater”
INDEX 00 66:09:57
INDEX 01 66:10:61
TRACK 23 AUDIO
TITLE “March Of The Tyrant”
PERFORMER “Dream Theater”
INDEX 00 71:54:13
INDEX 01 71:54:71


Spread the Download

Leave a Reply

Your email address will not be published. Required fields are marked *

Enter the text from the image below
 

This site uses Akismet to reduce spam. Learn how your comment data is processed.