Dream Theater – Official Bootleg: New York City 3/4/93




Artist: Dream Theater
Year: 2006
Genre: Rock
Notes: Discogs
Add. Notes:
Cover incl.: Yes
Encoder: FLAC
Bitrate: ~800 kBit/s (44.1 kHz/16 Bit/s)
Log & Cue incl.: Yes
Size: 747,08 MB
Password: “slam” (without ” “)


All Downloads/Hosters are compatible

Download 1
Turbobit.net
Rapidgator.net
KatFile.com
UploadRar.com
UploadRive.com
Download 2
Turbobit.net
Rapidgator.net
KatFile.com
UploadRar.com
UploadRive.com

Tracklist:

1-1. Metropolis. 
1-2. A Fortune In Lies. 
1-3. Under A Glass Moon. 
1-4. Surrounded. 
1-5. Ytse Jam / Drum Solo. 
1-6. To Live Forever. 
1-7. Take The Time. 

2-1. Eve. 
2-2. Pull Me Under. 
2-3. Another Day. 
2-4. Another Hand. 
2-5. The Killing Hand. 
2-6. A Change Of Seasons. 
2-7. Wait For Sleep. 
2-8. Learning To Live

EAC-Log, CUE-Sheed & NFO:

Click to open spoiler
Exact Audio Copy V1.0 beta 1 from 15. November 2010

EAC extraction logfile from 24. December 2010, 16:47

Dream Theater / Limelight – NYC 03-04-93

Used drive : PLEXTOR CD-R PX-240A Adapter: 1 ID: 1

Read mode : Secure
Utilize accurate stream : Yes
Defeat audio cache : Yes
Make use of C2 pointers : No

Read offset correction : 6
Overread into Lead-In and Lead-Out : No
Fill up missing offset samples with silence : Yes
Delete leading and trailing silent blocks : No
Null samples used in CRC calculations : Yes
Used interface : Installed external ASPI interface

Used output format : Internal WAV Routines
Sample format : 44.100 Hz; 16 Bit; Stereo

TOC of the extracted CD

Track | Start | Length | Start sector | End sector
———————————————————
1 | 0:00.00 | 9:19.50 | 0 | 41974
2 | 9:19.50 | 5:18.54 | 41975 | 65878
3 | 14:38.29 | 7:22.17 | 65879 | 99045
4 | 22:00.46 | 5:58.00 | 99046 | 125895
5 | 27:58.46 | 10:01.33 | 125896 | 171003
6 | 38:00.04 | 5:58.08 | 171004 | 197861
7 | 43:58.12 | 10:51.18 | 197862 | 246704

Range status and errors

Selected range

Filename Z:\data\mp3\Seeding\Dream Theater\Official Bootlegs\2007-New York City 3-4-93\nyc1.wav

Peak level 98.8 %
Extraction speed 1.5 X
Range quality 100.0 %
Test CRC 10C6BD0A
Copy CRC 10C6BD0A
Copy OK

No errors occurred

AccurateRip summary

Track 1 accurately ripped (confidence 14) [3EC3E0DC]
Track 2 accurately ripped (confidence 14) [9DA8EFF7]
Track 3 accurately ripped (confidence 14) [1B893554]
Track 4 accurately ripped (confidence 14) [762C8ADC]
Track 5 accurately ripped (confidence 14) [8B4AACE7]
Track 6 accurately ripped (confidence 14) [1FD3BC86]
Track 7 accurately ripped (confidence 14) [175FDAF5]

All tracks accurately ripped

End of status report

Exact Audio Copy V1.0 beta 1 from 15. November 2010

EAC extraction logfile from 24. December 2010, 16:47

Dream Theater / Limelight – NYC 03-04-93

Used drive : LITE-ON DVDRW LH-20A1L Adapter: 4 ID: 0

Read mode : Secure
Utilize accurate stream : Yes
Defeat audio cache : Yes
Make use of C2 pointers : No

Read offset correction : 6
Overread into Lead-In and Lead-Out : No
Fill up missing offset samples with silence : Yes
Delete leading and trailing silent blocks : No
Null samples used in CRC calculations : Yes
Used interface : Installed external ASPI interface

Used output format : Internal WAV Routines
Sample format : 44.100 Hz; 16 Bit; Stereo

TOC of the extracted CD

Track | Start | Length | Start sector | End sector
———————————————————
1 | 0:00.00 | 5:26.08 | 0 | 24457
2 | 5:26.08 | 8:23.47 | 24458 | 62229
3 | 13:49.55 | 4:36.10 | 62230 | 82939
4 | 18:25.65 | 2:11.37 | 82940 | 92801
5 | 20:37.27 | 8:04.64 | 92802 | 129165
6 | 28:42.16 | 19:59.56 | 129166 | 219146
7 | 48:41.72 | 2:49.01 | 219147 | 231822
8 | 51:30.73 | 13:26.55 | 231823 | 292327

Range status and errors

Selected range

Filename Z:\data\mp3\Seeding\Dream Theater\Official Bootlegs\2007-New York City 3-4-93\nyc2.wav

Peak level 98.8 %
Extraction speed 1.7 X
Range quality 100.0 %
Test CRC CC3AE7F5
Copy CRC CC3AE7F5
Copy OK

No errors occurred

AccurateRip summary

Track 1 accurately ripped (confidence 15) [8BB6AD96]
Track 2 accurately ripped (confidence 15) [6EFCAAD4]
Track 3 accurately ripped (confidence 15) [1E13CACF]
Track 4 accurately ripped (confidence 15) [CB9D10C2]
Track 5 accurately ripped (confidence 15) [CD294951]
Track 6 accurately ripped (confidence 15) [1183783F]
Track 7 accurately ripped (confidence 15) [C3401206]
Track 8 accurately ripped (confidence 15) [82ED8325]

All tracks accurately ripped

End of status report

REM GENRE “Progressive Metal”
REM DATE 2007
REM DISCID 4F0CD907
REM COMMENT “ExactAudioCopy v1.0b1”
PERFORMER “Dream Theater”
TITLE “Official Bootleg: Live At Limelight, New York City 3/4/93”
FILE “nyc1.flac” WAVE
TRACK 01 AUDIO
TITLE “Metropolis”
PERFORMER “Dream Theater”
INDEX 01 00:00:00
TRACK 02 AUDIO
TITLE “A Fortune In Lies”
PERFORMER “Dream Theater”
INDEX 01 09:19:50
TRACK 03 AUDIO
TITLE “Under A Glass Moon”
PERFORMER “Dream Theater”
INDEX 01 14:38:29
TRACK 04 AUDIO
TITLE “Surrounded”
PERFORMER “Dream Theater”
INDEX 01 22:00:46
TRACK 05 AUDIO
TITLE “Ytse Jam\Drum Solo”
PERFORMER “Dream Theater”
INDEX 01 27:58:46
TRACK 06 AUDIO
TITLE “To Live Forever”
PERFORMER “Dream Theater”
INDEX 01 38:00:04
TRACK 07 AUDIO
TITLE “Take The Time”
PERFORMER “Dream Theater”
INDEX 01 43:58:12

REM GENRE “Progressive Metal”
REM DISCID 5F0F3908
REM DATE 2007
REM COMMENT “ExactAudioCopy v1.0b1”
PERFORMER “Dream Theater”
TITLE “Official Bootleg: Live At Limelight, New York City 3/4/93”
FILE “nyc2.flac” WAVE
TRACK 01 AUDIO
TITLE “Eve”
PERFORMER “Dream Theater”
INDEX 01 00:00:00
TRACK 02 AUDIO
TITLE “Pull Me Under”
PERFORMER “Dream Theater”
INDEX 01 05:26:08
TRACK 03 AUDIO
TITLE “Another Day”
PERFORMER “Dream Theater”
INDEX 01 13:49:55
TRACK 04 AUDIO
TITLE “Another Hand”
PERFORMER “Dream Theater”
INDEX 01 18:25:65
TRACK 05 AUDIO
TITLE “The Killing Hand”
PERFORMER “Dream Theater”
INDEX 01 20:37:27
TRACK 06 AUDIO
TITLE “A Change Of Seasons”
PERFORMER “Dream Theater”
INDEX 01 28:42:16
TRACK 07 AUDIO
TITLE “Wait For Sleep”
PERFORMER “Dream Theater”
INDEX 01 48:41:72
TRACK 08 AUDIO
TITLE “Learning To Live”
PERFORMER “Dream Theater”
INDEX 01 51:30:73


Leave a Reply

Your email address will not be published. Required fields are marked *

This site uses Akismet to reduce spam. Learn how your comment data is processed.