Dream Theater – Official Bootleg: Made In Japan




[Total: 0    Average: 0/5]

Artist: Dream Theater
Year: 2007
Genre: Metal
Notes: Discogs
Add. Notes:
Cover incl.: Yes
Encoder: FLAC
Bitrate: ~800 kBit/s (44.1 kHz/16 Bit/s)
Log & Cue incl.: Yes
Size: 471 MB
Password: “slam” (without ” “)


All Downloads/Hosters are compatible

Download 1
Share-online.biz
KatFile.com
Rapidgator.net
Mexa.sh
Download 2
Share-online.biz
KatFile.com
Rapidgator.net
Mexa.sh

Tracklist:

1 - Highway Star - 8:28
2 - Child In Time - 11:52
3 - Smoke On The Water - 7:51
4 - The Mule - 8:31
5 - Strange Kind Of Woman - 10:07
6 - Lazy - 13:29
7 - Space Truckin' - 19:18

EAC-Log, CUE-Sheed & NFO:

Click to open spoiler
Exact Audio Copy V1.0 beta 1 from 15. November 2010

EAC extraction logfile from 24. December 2010, 15:16

Dream Theater / Made In Japan

Used drive : PLEXTOR CD-R PX-240A Adapter: 1 ID: 1

Read mode : Secure
Utilize accurate stream : Yes
Defeat audio cache : Yes
Make use of C2 pointers : No

Read offset correction : 6
Overread into Lead-In and Lead-Out : No
Fill up missing offset samples with silence : Yes
Delete leading and trailing silent blocks : No
Null samples used in CRC calculations : Yes
Used interface : Installed external ASPI interface

Used output format : Internal WAV Routines
Sample format : 44.100 Hz; 16 Bit; Stereo

TOC of the extracted CD

Track | Start | Length | Start sector | End sector
———————————————————
1 | 0:00.00 | 8:28.21 | 0 | 38120
2 | 8:28.21 | 11:52.54 | 38121 | 91574
3 | 20:21.00 | 7:51.40 | 91575 | 126939
4 | 28:12.40 | 8:31.64 | 126940 | 165328
5 | 36:44.29 | 10:07.18 | 165329 | 210871
6 | 46:51.47 | 13:29.08 | 210872 | 271554
7 | 60:20.55 | 19:18.38 | 271555 | 358442

Range status and errors

Selected range

Filename Z:\data\mp3\Seeding\Dream Theater\Official Bootlegs\2007-Made In Japan\madeinjapan.wav

Peak level 95.9 %
Extraction speed 2.1 X
Range quality 100.0 %
Test CRC C05A4358
Copy CRC C05A4358
Copy OK

No errors occurred

AccurateRip summary

Track 1 accurately ripped (confidence 22) [09BF5540]
Track 2 accurately ripped (confidence 22) [D1F6296F]
Track 3 accurately ripped (confidence 22) [5A907154]
Track 4 accurately ripped (confidence 22) [7A7B384D]
Track 5 accurately ripped (confidence 22) [783E7833]
Track 6 accurately ripped (confidence 22) [83E11938]
Track 7 accurately ripped (confidence 19) [04B93C2A]

All tracks accurately ripped

End of status report

REM GENRE “Progressive Metal”
REM DATE 2007
REM DISCID 4912AB07
REM COMMENT “ExactAudioCopy v1.0b1”
PERFORMER “Dream Theater”
TITLE “Official Bootleg: Made In Japan”
FILE “madeinjapan.wav” WAVE
TRACK 01 AUDIO
TITLE “Highway Star”
PERFORMER “Dream Theater”
INDEX 01 00:00:00
TRACK 02 AUDIO
TITLE “Child In Time”
PERFORMER “Dream Theater”
INDEX 01 08:28:21
TRACK 03 AUDIO
TITLE “Smoke On The Water”
PERFORMER “Dream Theater”
INDEX 01 20:21:00
TRACK 04 AUDIO
TITLE “The Mule / Drum Solo”
PERFORMER “Dream Theater”
INDEX 01 28:12:40
TRACK 05 AUDIO
TITLE “Strange Kind Of Woman”
PERFORMER “Dream Theater”
INDEX 01 36:44:29
TRACK 06 AUDIO
TITLE “Lazy”
PERFORMER “Dream Theater”
INDEX 01 46:51:47
TRACK 07 AUDIO
TITLE “Space Truckin'”
PERFORMER “Dream Theater”
INDEX 01 60:20:55


Spread the Download

Leave a Reply

Your email address will not be published. Required fields are marked *

Enter the text from the image below
 

This site uses Akismet to reduce spam. Learn how your comment data is processed.