Dream Theater – Official Bootleg: Los Angeles, California ● 5/18/98




[Total: 0    Average: 0/5]

Artist: Dream Theater
Year: 2003
Genre: Metal
Notes: Discogs
Add. Notes:
Cover incl.: Yes
Encoder: FLAC
Bitrate: ~900 kBit/s (44.1 kHz/16 Bit/s)
Log & Cue incl.: Yes
Size: 965,99 MB
Password: “slam” (without ” “)


All Downloads/Hosters are compatible

Download 1
Share-online.biz
KatFile.com
Rapidgator.net
Download 2
Share-online.biz
KatFile.com
Rapidgator.net

Tracklist:

1-1 - Lines In The Sand - 13:51
1-2 - Burning My Soul - 5:27
1-3 - Take The Time - 14:00
1-4 - Anna Lee - 7:32
1-5 - Speak To Me - 6:12
1-6 - A Crack In The Mirror / Puppies On Acid - 4:00
1-7 - Just Let Me Breathe - 5:11
1-8 - Lie - 7:18
1-9 - Peruvian Skies - 7:51
1-10 - Guitar Solo - 6:23

2-1 - Pull Me Under - 7:44
2-2 - Scarred - 11:29
2-3 - A Change Of Seasons Pt. IV - 3:07
2-4 - Ytse Jam - 4:19
2-5 - Drum Solo - 7:18
2-6 - New Millennium - 8:17
Encore
2-7 - Perfect Strangers - 5:02
2-8 - The Trooper - 4:24
2-9 - Where Eagles Dare - 1:00
2-10 - Killers - 2:03
Medley
2-11 - Metropolis - 6:18
2-12 - Learning To Live - 4:11
2-13 - A Change Of Seasons Pt. VII - 3:30

EAC-Log, CUE-Sheed & NFO:

Click to open spoiler
Exact Audio Copy V1.0 beta 1 from 15. November 2010

EAC extraction logfile from 24. December 2010, 16:26

Dream Theater / Official Bootleg – Los Angeles, California 5/18/98 (Disc-1)

Used drive : PLEXTOR CD-R PX-240A Adapter: 1 ID: 1

Read mode : Secure
Utilize accurate stream : Yes
Defeat audio cache : Yes
Make use of C2 pointers : No

Read offset correction : 6
Overread into Lead-In and Lead-Out : No
Fill up missing offset samples with silence : Yes
Delete leading and trailing silent blocks : No
Null samples used in CRC calculations : Yes
Used interface : Installed external ASPI interface

Used output format : Internal WAV Routines
Sample format : 44.100 Hz; 16 Bit; Stereo

TOC of the extracted CD

Track | Start | Length | Start sector | End sector
———————————————————
1 | 0:00.08 | 13:51.10 | 8 | 62342
2 | 13:51.18 | 5:27.56 | 62343 | 86923
3 | 19:18.74 | 14:00.08 | 86924 | 149931
4 | 33:19.07 | 7:32.67 | 149932 | 183898
5 | 40:51.74 | 6:12.48 | 183899 | 211846
6 | 47:04.47 | 4:00.10 | 211847 | 229856
7 | 51:04.57 | 5:11.59 | 229857 | 253240
8 | 56:16.41 | 7:18.00 | 253241 | 286090
9 | 63:34.41 | 7:51.38 | 286091 | 321453
10 | 71:26.04 | 6:22.61 | 321454 | 350164

Range status and errors

Selected range

Filename Z:\data\mp3\Seeding\Dream Theater\Official Bootlegs\2003-Los Angeles, California 5-18-98\la1.wav

Peak level 100.0 %
Extraction speed 0.7 X
Range quality 100.0 %
Test CRC 0019D951
Copy CRC 0019D951
Copy OK

No errors occurred

AccurateRip summary

Track 1 accurately ripped (confidence 10) [AEC350EE]
Track 2 accurately ripped (confidence 10) [A25849E1]
Track 3 accurately ripped (confidence 10) [78108FB8]
Track 4 accurately ripped (confidence 10) [89D83B56]
Track 5 accurately ripped (confidence 10) [46AC9289]
Track 6 accurately ripped (confidence 10) [D2245A7B]
Track 7 accurately ripped (confidence 10) [76BE28D0]
Track 8 accurately ripped (confidence 10) [620CB471]
Track 9 accurately ripped (confidence 10) [ABD6F07D]
Track 10 accurately ripped (confidence 10) [E1C3274F]

All tracks accurately ripped

End of status report

Exact Audio Copy V1.0 beta 1 from 15. November 2010

EAC extraction logfile from 24. December 2010, 16:27

Dream Theater / (1998-10-18)-Live at House of Blues in Los Angeles, CA

Used drive : LITE-ON DVDRW LH-20A1L Adapter: 4 ID: 0

Read mode : Secure
Utilize accurate stream : Yes
Defeat audio cache : Yes
Make use of C2 pointers : No

Read offset correction : 6
Overread into Lead-In and Lead-Out : No
Fill up missing offset samples with silence : Yes
Delete leading and trailing silent blocks : No
Null samples used in CRC calculations : Yes
Used interface : Installed external ASPI interface

Used output format : Internal WAV Routines
Sample format : 44.100 Hz; 16 Bit; Stereo

TOC of the extracted CD

Track | Start | Length | Start sector | End sector
———————————————————
1 | 0:00.06 | 7:44.07 | 6 | 34812
2 | 7:44.13 | 11:28.65 | 34813 | 86477
3 | 19:13.03 | 3:07.24 | 86478 | 100526
4 | 22:20.27 | 4:19.65 | 100527 | 120016
5 | 26:40.17 | 7:21.02 | 120017 | 153093
6 | 34:01.19 | 8:17.05 | 153094 | 190373
7 | 42:18.24 | 5:02.44 | 190374 | 213067
8 | 47:20.68 | 4:24.28 | 213068 | 232895
9 | 51:45.21 | 1:00.64 | 232896 | 237459
10 | 52:46.10 | 2:03.48 | 237460 | 246732
11 | 54:49.58 | 6:18.52 | 246733 | 275134
12 | 61:08.35 | 4:11.62 | 275135 | 294021
13 | 65:20.22 | 3:30.58 | 294022 | 309829

Range status and errors

Selected range

Filename Z:\data\mp3\Seeding\Dream Theater\Official Bootlegs\2003-Los Angeles, California 5-18-98\la2.wav

Peak level 100.0 %
Extraction speed 0.2 X
Range quality 100.0 %
Test CRC 9B1C85AB
Copy CRC 9B1C85AB
Copy OK

No errors occurred

AccurateRip summary

Track 1 accurately ripped (confidence 10) [E2F35906]
Track 2 accurately ripped (confidence 10) [9445073B]
Track 3 accurately ripped (confidence 10) [16EA3DF5]
Track 4 accurately ripped (confidence 10) [88103BC7]
Track 5 accurately ripped (confidence 11) [866B161B]
Track 6 accurately ripped (confidence 11) [3F0993F5]
Track 7 accurately ripped (confidence 11) [085A5A64]
Track 8 accurately ripped (confidence 11) [54CC0915]
Track 9 accurately ripped (confidence 11) [2533899D]
Track 10 accurately ripped (confidence 11) [016B9732]
Track 11 accurately ripped (confidence 11) [F4361FFC]
Track 12 accurately ripped (confidence 11) [14956671]
Track 13 accurately ripped (confidence 11) [6AFB4FFF]

All tracks accurately ripped

End of status report

REM GENRE “Progressive Metal”
REM DATE 2003
REM DISCID 87123C0A
REM COMMENT “ExactAudioCopy v1.0b1”
PERFORMER “Dream Theater”
TITLE “Official Bootleg: House Of Blues Los Angeles, California 5/18/98 CD 1”
FILE “la1.flac” WAVE
TRACK 01 AUDIO
TITLE “Lines In The Sand”
PERFORMER “Dream Theater”
INDEX 00 00:00:00
INDEX 01 00:00:08
TRACK 02 AUDIO
TITLE “Burning My Soul”
PERFORMER “Dream Theater”
INDEX 01 13:51:18
TRACK 03 AUDIO
TITLE “Take The Time”
PERFORMER “Dream Theater”
INDEX 01 19:18:74
TRACK 04 AUDIO
TITLE “Anna Lee”
PERFORMER “Dream Theater”
INDEX 01 33:19:07
TRACK 05 AUDIO
TITLE “Speak To Me”
PERFORMER “Dream Theater”
INDEX 01 40:51:74
TRACK 06 AUDIO
TITLE “A Crack In The Mirror / Puppies On Acid”
PERFORMER “Dream Theater”
INDEX 01 47:04:47
TRACK 07 AUDIO
TITLE “Just Let Me Breathe”
PERFORMER “Dream Theater”
INDEX 01 51:04:57
TRACK 08 AUDIO
TITLE “Lie”
PERFORMER “Dream Theater”
INDEX 01 56:16:41
TRACK 09 AUDIO
TITLE “Peruvian Skies”
PERFORMER “Dream Theater”
INDEX 01 63:34:41
TRACK 10 AUDIO
TITLE “Guitar Solo”
PERFORMER “Dream Theater”
INDEX 01 71:26:04

REM GENRE “Progressive Metal”
REM DATE 2003
REM DISCID A110230D
REM COMMENT “ExactAudioCopy v1.0b1”
PERFORMER “Dream Theater”
TITLE “Official Bootleg: House Of Blues Los Angeles, California 5/18/98 CD 2”
FILE “la2.flac” WAVE
TRACK 01 AUDIO
TITLE “Pull Me Under”
PERFORMER “Dream Theater”
INDEX 00 00:00:00
INDEX 01 00:00:06
TRACK 02 AUDIO
TITLE “Scarred”
PERFORMER “Dream Theater”
INDEX 01 07:44:13
TRACK 03 AUDIO
TITLE “A Change Of Seasons Pt. IV”
PERFORMER “Dream Theater”
INDEX 01 19:13:03
TRACK 04 AUDIO
TITLE “Ytse Jam”
PERFORMER “Dream Theater”
INDEX 01 22:20:27
TRACK 05 AUDIO
TITLE “Drum Solo”
PERFORMER “Dream Theater”
INDEX 01 26:40:17
TRACK 06 AUDIO
TITLE “New Millenium”
PERFORMER “Dream Theater”
INDEX 01 34:01:19
TRACK 07 AUDIO
TITLE “Perfect Strangers”
PERFORMER “Dream Theater”
INDEX 01 42:18:24
TRACK 08 AUDIO
TITLE “The Trooper”
PERFORMER “Dream Theater”
INDEX 01 47:20:68
TRACK 09 AUDIO
TITLE “Where Eagles Dare”
PERFORMER “Dream Theater”
INDEX 01 51:45:21
TRACK 10 AUDIO
TITLE “Killers”
PERFORMER “Dream Theater”
INDEX 01 52:46:10
TRACK 11 AUDIO
TITLE “Metropolis”
PERFORMER “Dream Theater”
INDEX 01 54:49:58
TRACK 12 AUDIO
TITLE “Learning To Live”
PERFORMER “Dream Theater”
INDEX 01 61:08:35
TRACK 13 AUDIO
TITLE “A Change Of Seasons Pt. VII”
PERFORMER “Dream Theater”
INDEX 01 65:20:22


Spread the Download

Leave a Reply

Your email address will not be published. Required fields are marked *

Enter the text from the image below
 

This site uses Akismet to reduce spam. Learn how your comment data is processed.