Dream Theater – Official Bootleg: Dark Side Of The Moon




Artist: Dream Theater
Year: 2006
Genre: Rock
Notes: Discogs
Add. Notes:
Cover incl.: Yes
Encoder: FLAC
Bitrate: ~800 kBit/s (44.1 kHz/16 Bit/s)
Log & Cue incl.: Yes
Size: 1110,4 MB
Password: “slam” (without ” “)


All Downloads/Hosters are compatible

Download 1
KatFile.com
Rapidgator.net
NitroFlare.com
Turbobit.net
Download 2
KatFile.com
Rapidgator.net
NitroFlare.com
Turbobit.net
Download 3
KatFile.com
Rapidgator.net
NitroFlare.com
Turbobit.net

Tracklist:

Dark Side Of The Moon
1.1 - Speak To Me / Breathe - 3:55
1.2 - On The Run - 2:26
1.3 - Time - 7:02
1.4 - The Great Gig In The Sky - 4:35
1.5 - Money - 6:35
1.6 - Us And Them - 8:02
1.7 - Any Colour You Like - 5:05
1.8 - Brain Damage - 3:49
1.9 - Eclipse - 2:48
Bonus Disc - A Saucerful Of Floyd
2.1 - Echoes Pt. 1 - 12:00
2.2 - One Of These Days - 6:24
2.3 - Sheep - 9:42
2.4 - In The Flesh? - 2:56
2.5 - Run Like Hell - 1:58
2.6 - Hey You - 4:49
2.7 - Comfortably Numb - 7:22

EAC-Log, CUE-Sheed & NFO:

Click to open spoiler
Exact Audio Copy V1.0 beta 1 from 15. November 2010

EAC extraction logfile from 24. December 2010, 13:44

Dream Theater / Dark Side Of The Moon

Used drive : PLEXTOR CD-R PX-240A Adapter: 1 ID: 1

Read mode : Secure
Utilize accurate stream : Yes
Defeat audio cache : Yes
Make use of C2 pointers : No

Read offset correction : 6
Overread into Lead-In and Lead-Out : No
Fill up missing offset samples with silence : Yes
Delete leading and trailing silent blocks : No
Null samples used in CRC calculations : Yes
Used interface : Installed external ASPI interface

Used output format : Internal WAV Routines
Sample format : 44.100 Hz; 16 Bit; Stereo

TOC of the extracted CD

Track | Start | Length | Start sector | End sector
———————————————————
1 | 0:00.00 | 3:55.71 | 0 | 17695
2 | 3:55.71 | 2:26.13 | 17696 | 28658
3 | 6:22.09 | 7:02.64 | 28659 | 60372
4 | 13:24.73 | 4:36.16 | 60373 | 81088
5 | 18:01.14 | 6:36.03 | 81089 | 110791
6 | 24:37.17 | 8:02.45 | 110792 | 146986
7 | 32:39.62 | 5:06.15 | 146987 | 169951
8 | 37:46.02 | 3:49.52 | 169952 | 187178
9 | 41:35.54 | 2:48.64 | 187179 | 199842

Range status and errors

Selected range

Filename Z:\data\mp3\Seeding\Dream Theater\Official Bootlegs\2006-Dark Side Of The Moon\darkside.wav

Peak level 100.0 %
Extraction speed 0.4 X
Range quality 100.0 %
Test CRC 3BB1AEDF
Copy CRC 3BB1AEDF
Copy OK

No errors occurred

AccurateRip summary

Track 1 accurately ripped (confidence 2) [13A7FE55]
Track 2 accurately ripped (confidence 2) [78226FD7]
Track 3 accurately ripped (confidence 2) [3E43822A]
Track 4 accurately ripped (confidence 2) [061AE7B9]
Track 5 accurately ripped (confidence 2) [5C6FBB3C]
Track 6 accurately ripped (confidence 2) [2CE479F7]
Track 7 accurately ripped (confidence 2) [32076145]
Track 8 accurately ripped (confidence 2) [C259D653]
Track 9 accurately ripped (confidence 2) [A2A74494]

All tracks accurately ripped

End of status report

Exact Audio Copy V1.0 beta 1 from 15. November 2010

EAC extraction logfile from 24. December 2010, 13:44

Dream Theater / A Saucerful Of Floyd

Used drive : LITE-ON DVDRW LH-20A1L Adapter: 4 ID: 0

Read mode : Secure
Utilize accurate stream : Yes
Defeat audio cache : Yes
Make use of C2 pointers : No

Read offset correction : 6
Overread into Lead-In and Lead-Out : No
Fill up missing offset samples with silence : Yes
Delete leading and trailing silent blocks : No
Null samples used in CRC calculations : Yes
Used interface : Installed external ASPI interface

Used output format : Internal WAV Routines
Sample format : 44.100 Hz; 16 Bit; Stereo

TOC of the extracted CD

Track | Start | Length | Start sector | End sector
———————————————————
1 | 0:00.00 | 12:00.17 | 0 | 54016
2 | 12:00.17 | 6:22.62 | 54017 | 82728
3 | 18:23.04 | 9:42.08 | 82729 | 126386
4 | 28:05.12 | 2:56.14 | 126387 | 139600
5 | 31:01.26 | 1:58.58 | 139601 | 148508
6 | 33:00.09 | 4:48.38 | 148509 | 170146
7 | 37:48.47 | 7:22.34 | 170147 | 203330

Range status and errors

Selected range

Filename Z:\data\mp3\Seeding\Dream Theater\Official Bootlegs\2006-Dark Side Of The Moon\saucerful.wav

Peak level 100.0 %
Extraction speed 0.7 X
Range quality 100.0 %
Test CRC 539BA67C
Copy CRC 539BA67C
Copy OK

No errors occurred

AccurateRip summary

Track 1 accurately ripped (confidence 2) [94B6F883]
Track 2 accurately ripped (confidence 2) [C7F3FA34]
Track 3 accurately ripped (confidence 2) [69C67E8A]
Track 4 accurately ripped (confidence 2) [0F027B9B]
Track 5 accurately ripped (confidence 2) [2B32B98A]
Track 6 accurately ripped (confidence 2) [3B14826B]
Track 7 accurately ripped (confidence 2) [082BDDFC]

All tracks accurately ripped

End of status report

REM GENRE “Progressive Metal”
REM DATE 2006
REM DISCID 850A6809
REM COMMENT “ExactAudioCopy v1.0b1”
PERFORMER “Dream Theater”
TITLE “Official Bootleg: Dark Side Of The Moon CD 1”
FILE “darkside.flac” WAVE
TRACK 01 AUDIO
TITLE “Speak To Me / Breathe”
PERFORMER “Dream Theater”
FLAGS DCP
INDEX 01 00:00:00
TRACK 02 AUDIO
TITLE “On The Run”
PERFORMER “Dream Theater”
FLAGS DCP
INDEX 01 03:55:71
TRACK 03 AUDIO
TITLE “Time”
PERFORMER “Dream Theater”
FLAGS DCP
INDEX 01 06:22:09
TRACK 04 AUDIO
TITLE “The Great Gig In The Sky”
PERFORMER “Dream Theater”
FLAGS DCP
INDEX 01 13:24:73
TRACK 05 AUDIO
TITLE “Money”
PERFORMER “Dream Theater”
FLAGS DCP
INDEX 01 18:01:14
TRACK 06 AUDIO
TITLE “Us And Them”
PERFORMER “Dream Theater”
FLAGS DCP
INDEX 01 24:37:17
TRACK 07 AUDIO
TITLE “Any Colour You Like”
PERFORMER “Dream Theater”
FLAGS DCP
INDEX 01 32:39:62
TRACK 08 AUDIO
TITLE “Brain Damage”
PERFORMER “Dream Theater”
FLAGS DCP
INDEX 01 37:46:02
TRACK 09 AUDIO
TITLE “Eclipse”
PERFORMER “Dream Theater”
FLAGS DCP
INDEX 01 41:35:54

REM GENRE “Progressive Metal”
REM DATE 2006
REM DISCID 5B0A9707
REM COMMENT “ExactAudioCopy v1.0b1”
PERFORMER “Dream Theater”
TITLE “Official Bootleg: Dark Side Of The Moon CD 2 – A Saucerful Of Floyd”
FILE “saucerful.flac” WAVE
TRACK 01 AUDIO
TITLE “Echoes Pt. 1”
PERFORMER “Dream Theater”
FLAGS DCP
INDEX 01 00:00:00
TRACK 02 AUDIO
TITLE “One Of These Days”
PERFORMER “Dream Theater”
FLAGS DCP
INDEX 01 12:00:17
TRACK 03 AUDIO
TITLE “Sheep”
PERFORMER “Dream Theater”
FLAGS DCP
INDEX 01 18:23:04
TRACK 04 AUDIO
TITLE “In The Flesh?”
PERFORMER “Dream Theater”
FLAGS DCP
INDEX 01 28:05:12
TRACK 05 AUDIO
TITLE “Run Like Hell”
PERFORMER “Dream Theater”
FLAGS DCP
INDEX 01 31:01:26
TRACK 06 AUDIO
TITLE “Hey You”
PERFORMER “Dream Theater”
FLAGS DCP
INDEX 01 33:00:09
TRACK 07 AUDIO
TITLE “Comfortably Numb Featuring Queensrÿche”
PERFORMER “Dream Theater”
FLAGS DCP
INDEX 01 37:48:47


Leave a Reply

Your email address will not be published. Required fields are marked *

Enter the text from the image below
 

This site uses Akismet to reduce spam. Learn how your comment data is processed.