Dream Theater – Octavarium




[Total: 0    Average: 0/5]

Artist: Dream Theater
Year: 2005
Genre: Metal
Notes: Discogs
Add. Notes:
Cover incl.: Yes
Encoder: FLAC
Bitrate: ~1000 kBit/s (44.1 kHz/16 Bit/s)
Log & Cue incl.: Yes
Size: 533 MB
Password: “slam” (without ” “)


All Downloads/Hosters are compatible

Download 1
KatFile.com
Turbobit.net
FileFactory.com
Rapidgator.net
Download 2
KatFile.com
Turbobit.net
FileFactory.com
Rapidgator.net

Tracklist:

1 - The Root Of All Evil - 8:07
2 - The Answer Lies Within - 5:20
3 - These Walls - 6:59
4 - I Walk Beside You - 4:29
5 - Panic Attack - 7:16
6 - Never Enough - 6:33
7 - Sacrificed Sons - 10:42
8 - Octavarium - 24:00

EAC-Log, CUE-Sheed & NFO:

Click to open spoiler
Exact Audio Copy V1.0 beta 1 from 15. November 2010

EAC extraction logfile from 23. December 2010, 9:32

Dream Theater / Octavarium

Used drive : LITE-ON DVDRW LH-20A1L Adapter: 4 ID: 0

Read mode : Secure
Utilize accurate stream : Yes
Defeat audio cache : Yes
Make use of C2 pointers : No

Read offset correction : 6
Overread into Lead-In and Lead-Out : No
Fill up missing offset samples with silence : Yes
Delete leading and trailing silent blocks : No
Null samples used in CRC calculations : Yes
Used interface : Installed external ASPI interface

Used output format : Internal WAV Routines
Sample format : 44.100 Hz; 16 Bit; Stereo

TOC of the extracted CD

Track | Start | Length | Start sector | End sector
———————————————————
1 | 0:00.00 | 8:25.43 | 0 | 37917
2 | 8:25.43 | 5:33.08 | 37918 | 62900
3 | 13:58.51 | 7:36.02 | 62901 | 97102
4 | 21:34.53 | 4:29.25 | 97103 | 117302
5 | 26:04.03 | 8:13.02 | 117303 | 154279
6 | 34:17.05 | 6:46.38 | 154280 | 184767
7 | 41:03.43 | 10:42.72 | 184768 | 232989
8 | 51:46.40 | 24:00.01 | 232990 | 340990

Range status and errors

Selected range

Filename Z:\data\mp3\Seeding\Dream Theater\Albums\2005-Octavarium\octavarium.wav

Peak level 100.0 %
Extraction speed 1.8 X
Range quality 100.0 %
Test CRC 19372E62
Copy CRC 19372E62
Copy OK

No errors occurred

AccurateRip summary

Track 1 accurately ripped (confidence 2) [4E866E10]
Track 2 accurately ripped (confidence 2) [5D3510AE]
Track 3 accurately ripped (confidence 2) [FB1E2685]
Track 4 accurately ripped (confidence 2) [597EE9A7]
Track 5 accurately ripped (confidence 2) [009D127B]
Track 6 accurately ripped (confidence 2) [DF80F305]
Track 7 accurately ripped (confidence 2) [99AB157B]
Track 8 accurately ripped (confidence 2) [6FEA5458]

All tracks accurately ripped

End of status report

REM GENRE “Progressive Metal”
REM DATE 2005
REM DISCID 6B11C208
REM COMMENT “ExactAudioCopy v1.0b1”
CATALOG 0075678379321
PERFORMER “Dream Theater”
TITLE “Octavarium”
FILE “octavarium.flac” WAVE
TRACK 01 AUDIO
TITLE “The Root of All Evil”
PERFORMER “Dream Theater”
ISRC USEE10500937
FLAGS DCP
INDEX 01 00:00:00
TRACK 02 AUDIO
TITLE “The Answer Lies Within”
PERFORMER “Dream Theater”
ISRC USEE10500938
FLAGS DCP
INDEX 00 08:07:61
INDEX 01 08:25:43
TRACK 03 AUDIO
TITLE “These Walls”
PERFORMER “Dream Theater”
ISRC USEE10500971
FLAGS DCP
INDEX 00 13:51:57
INDEX 01 13:58:51
TRACK 04 AUDIO
TITLE “I Walk Beside You”
PERFORMER “Dream Theater”
ISRC USEE10500972
FLAGS DCP
INDEX 00 20:58:19
INDEX 01 21:34:53
TRACK 05 AUDIO
TITLE “Panic Attack”
PERFORMER “Dream Theater”
ISRC USEE10500973
FLAGS DCP
INDEX 01 26:04:03
TRACK 06 AUDIO
TITLE “Never Enough”
PERFORMER “Dream Theater”
ISRC USEE10500974
FLAGS DCP
INDEX 00 33:20:36
INDEX 01 34:17:05
TRACK 07 AUDIO
TITLE “Sacrificed Sons”
PERFORMER “Dream Theater”
ISRC USEE10500975
FLAGS DCP
INDEX 00 40:50:72
INDEX 01 41:03:43
TRACK 08 AUDIO
TITLE “Octavarium”
PERFORMER “Dream Theater”
ISRC USEE10500976
FLAGS DCP
INDEX 01 51:46:40


Spread the Download

Leave a Reply

Your email address will not be published. Required fields are marked *

Enter the text from the image below
 

This site uses Akismet to reduce spam. Learn how your comment data is processed.