Dream Theater – No Sleep Since Brooklyn




Artist: Dream Theater
Year: 1986
Genre: Metal
Notes: Discogs
Add. Notes:
Cover incl.: Yes
Encoder: FLAC
Bitrate: ~700 kBit/s (44.1 kHz/16 Bit/s)
Log & Cue incl.: Yes
Size: 253,99 MB
Password: “slam” (without ” “)


All Downloads/Hosters are compatible

Download 1
Turbobit.net
NitroFlare.com
KatFile.com
Rapidgator.net
Download 2
Turbobit.net
NitroFlare.com
KatFile.com
Rapidgator.net

Tracklist:

No Sleep Since Brooklyn - L'Amour 9/25/86
1 - Another Won - 4:53
2 - Cry For Freedom - 6:33
3 - The Gates Of Babylon - 6:10
4 - Your Majesty - 3:33
5 - March Of The Tyrant - 5:43
6 - Afterlife - 5:18
Instru-Mental III
7 - Two Far - 5:52
8 - The Saurus - 1:21
9 - Your Majesty - 4:00
10 - Viking Outro - 0:40
11 - 7 Mini Guitar Songs - 1:49
12 - A Swell Guitar Piece - 0:51
13 - Anti-Procrastination Song - 0:13

EAC-Log, CUE-Sheed & NFO:

Click to open spoiler
Exact Audio Copy V1.0 beta 1 from 15. November 2010

EAC extraction logfile from 24. December 2010, 18:17

Dream Theater / Instrumental III/No Sleep Since Brooklyn

Used drive : PLEXTOR CD-R PX-240A Adapter: 1 ID: 1

Read mode : Secure
Utilize accurate stream : Yes
Defeat audio cache : Yes
Make use of C2 pointers : No

Read offset correction : 6
Overread into Lead-In and Lead-Out : No
Fill up missing offset samples with silence : Yes
Delete leading and trailing silent blocks : No
Null samples used in CRC calculations : Yes
Used interface : Installed external ASPI interface

Used output format : Internal WAV Routines
Sample format : 44.100 Hz; 16 Bit; Stereo

TOC of the extracted CD

Track | Start | Length | Start sector | End sector
———————————————————
1 | 0:00.00 | 4:53.32 | 0 | 22006
2 | 4:53.32 | 6:33.30 | 22007 | 51511
3 | 11:26.62 | 6:10.58 | 51512 | 79319
4 | 17:37.45 | 3:33.62 | 79320 | 95356
5 | 21:11.32 | 5:43.38 | 95357 | 121119
6 | 26:54.70 | 5:18.05 | 121120 | 144974
7 | 32:13.00 | 5:52.52 | 144975 | 171426
8 | 38:05.52 | 1:21.68 | 171427 | 177569
9 | 39:27.45 | 4:00.67 | 177570 | 195636
10 | 43:28.37 | 0:40.70 | 195637 | 198706
11 | 44:09.32 | 1:49.02 | 198707 | 206883
12 | 45:58.34 | 0:51.68 | 206884 | 210776
13 | 46:50.27 | 0:13.07 | 210777 | 211758

Range status and errors

Selected range

Filename Z:\data\mp3\Seeding\Dream Theater\Bootlegs\1986-No Sleep Since Brooklyn – Instru Mental III\nosleep.wav

Peak level 84.4 %
Extraction speed 0.0 X
Range quality 99.9 %
Test CRC 18EC352F
Copy CRC 18EC352F
Copy OK

No errors occurred

AccurateRip summary

Track 1 accurately ripped (confidence 4) [8D01F67D]
Track 2 accurately ripped (confidence 4) [0CA16675]
Track 3 accurately ripped (confidence 4) [ACF33851]
Track 4 accurately ripped (confidence 4) [44673571]
Track 5 accurately ripped (confidence 3) [C1A646E5]
Track 6 not present in database
Track 7 not present in database
Track 8 accurately ripped (confidence 2) [5eeaf245]
Track 9 accurately ripped (confidence 2) [81862547]
Track 10 accurately ripped (confidence 2) [184C3D79]
Track 11 accurately ripped (confidence 2) [8DA331D9]
Track 12 accurately ripped (confidence 2) [E8E66B30]
Track 13 accurately ripped (confidence 2) [6AEE5BBE]

11 track(s) accurately ripped
2 track(s) not present in the AccurateRip database

Some tracks could not be verified as accurate

End of status report

REM GENRE “Progressive Metal”
REM DISCID BE0B070D
REM DATE 1986
REM COMMENT “ExactAudioCopy v1.0b1”
CATALOG 0000000000000
PERFORMER “Dream Theater”
TITLE “No Sleep Since Brooklyn / Instrumental III”
FILE “nosleep.flac” WAVE
TRACK 01 AUDIO
TITLE “Another Won”
PERFORMER “Dream Theater”
INDEX 01 00:00:00
TRACK 02 AUDIO
TITLE “Cry Freedom”
PERFORMER “Dream Theater”
INDEX 01 04:53:32
TRACK 03 AUDIO
TITLE “The Gates Of Babylon”
PERFORMER “Dream Theater”
INDEX 01 11:26:62
TRACK 04 AUDIO
TITLE “Your Majesty”
PERFORMER “Dream Theater”
INDEX 01 17:37:45
TRACK 05 AUDIO
TITLE “March of The Tyrant”
PERFORMER “Dream Theater”
INDEX 00 21:11:31
INDEX 01 21:11:32
TRACK 06 AUDIO
TITLE “Afterlife”
PERFORMER “Dream Theater”
INDEX 01 26:54:70
TRACK 07 AUDIO
TITLE “Two Far”
PERFORMER “Dream Theater”
INDEX 01 32:13:00
TRACK 08 AUDIO
TITLE “The Saurus”
PERFORMER “Dream Theater”
INDEX 01 38:05:52
TRACK 09 AUDIO
TITLE “Your Majesty”
PERFORMER “Dream Theater”
INDEX 01 39:27:45
TRACK 10 AUDIO
TITLE “Viking Outro”
PERFORMER “Dream Theater”
INDEX 01 43:28:37
TRACK 11 AUDIO
TITLE “7 Mini Guitar Songs”
PERFORMER “Dream Theater”
INDEX 01 44:09:32
TRACK 12 AUDIO
TITLE “A Swell Guitar Piece”
PERFORMER “Dream Theater”
INDEX 01 45:58:34
TRACK 13 AUDIO
TITLE “Anti-Procrastination Song”
PERFORMER “Dream Theater”
INDEX 01 46:50:27


Leave a Reply

Your email address will not be published. Required fields are marked *

Enter the text from the image below
 

This site uses Akismet to reduce spam. Learn how your comment data is processed.