Dream Theater – Metropolis Pt. 2: Scenes From A Memory




[Total: 0    Average: 0/5]

Artist: Dream Theater
Year: 1999
Genre: Metal
Notes: Discogs
Add. Notes:
Cover incl.: Yes
Encoder: FLAC
Bitrate: ~900 kBit/s (44.1 kHz/16 Bit/s)
Log & Cue incl.: Yes
Size: 536,88 MB
Password: “slam” (without ” “)


All Downloads/Hosters are compatible

Download 1
Share-online.biz
KatFile.com
Rapidgator.net
NitroFlare.com
Download 2
Share-online.biz
KatFile.com
Rapidgator.net
NitroFlare.com

Tracklist:

Act I
1 - Scene One: Regression - 2:06
Scene Two
2 - I. Overture 1928 - 3:37
3 - II. Strange Deja Vu - 5:12
Scene Three
4 - I. Through My Words - 1:02
5 - II. Fatal Tragedy - 6:49
6 - Scene Four: Beyond This Life - 11:22
7 - Scene Five: Through Her Eyes - 5:29
Act II
8 - Scene Six: Home - 12:53
Scene Seven
9 - I. The Dance Of Eternity - 6:13
10 - II. One Last Time - 3:46
11 - Scene Eight: The Spirit Carries On - 6:38
12 - Scene Nine: Finally Free - 12:00

EAC-Log, CUE-Sheed & NFO:

Click to open spoiler
Exact Audio Copy V1.0 beta 1 from 15. November 2010

EAC extraction logfile from 19. December 2010, 20:38

Dream Theater / Metropolis Pt. 2 : Scenes From A Memory

Used drive : PLEXTOR CD-R PX-240A Adapter: 1 ID: 1

Read mode : Secure
Utilize accurate stream : Yes
Defeat audio cache : Yes
Make use of C2 pointers : No

Read offset correction : 6
Overread into Lead-In and Lead-Out : No
Fill up missing offset samples with silence : Yes
Delete leading and trailing silent blocks : No
Null samples used in CRC calculations : Yes
Used interface : Installed external ASPI interface

Used output format : Internal WAV Routines
Sample format : 44.100 Hz; 16 Bit; Stereo

TOC of the extracted CD

Track | Start | Length | Start sector | End sector
———————————————————
1 | 0:00.00 | 2:06.50 | 0 | 9499
2 | 2:06.50 | 3:37.67 | 9500 | 25841
3 | 5:44.42 | 5:12.23 | 25842 | 49264
4 | 10:56.65 | 1:02.12 | 49265 | 53926
5 | 11:59.02 | 6:49.30 | 53927 | 84631
6 | 18:48.32 | 11:22.53 | 84632 | 135834
7 | 30:11.10 | 5:29.20 | 135835 | 160529
8 | 35:40.30 | 12:53.27 | 160530 | 218531
9 | 48:33.57 | 6:13.53 | 218532 | 246559
10 | 54:47.35 | 3:46.55 | 246560 | 263564
11 | 58:34.15 | 6:38.20 | 263565 | 293434
12 | 65:12.35 | 11:59.52 | 293435 | 347411

Range status and errors

Selected range

Filename Z:\data\mp3\Seeding\Dream Theater\Albums\1999-Metropolis Pt. 2 Scenes From A Memory\sfam.wav

Peak level 100.0 %
Extraction speed 1.5 X
Range quality 100.0 %
Test CRC 04ECA188
Copy CRC 04ECA188
Copy OK

No errors occurred

AccurateRip summary

Track 1 accurately ripped (confidence 3) [2ED497D3]
Track 2 accurately ripped (confidence 3) [937F497C]
Track 3 accurately ripped (confidence 3) [A2B3C90F]
Track 4 accurately ripped (confidence 3) [772D2B1B]
Track 5 accurately ripped (confidence 3) [BAAA360A]
Track 6 accurately ripped (confidence 3) [CEE516B8]
Track 7 accurately ripped (confidence 3) [C2EA0CEB]
Track 8 accurately ripped (confidence 3) [21AC46A1]
Track 9 accurately ripped (confidence 3) [935E9ACD]
Track 10 accurately ripped (confidence 3) [02318A7E]
Track 11 accurately ripped (confidence 3) [FD2CFC01]
Track 12 accurately ripped (confidence 3) [CC41941B]

All tracks accurately ripped

End of status report

REM GENRE “Progressive Metal”
REM DATE 1999
REM DISCID 9912180C
REM COMMENT “ExactAudioCopy v1.0b1”
PERFORMER “Dream Theater”
TITLE “Metropolis Pt. 2 : Scenes From A Memory”
FILE “sfam.flac” WAVE
TRACK 01 AUDIO
TITLE “Act I – Scene One: Regression”
PERFORMER “Dream Theater”
ISRC USEW19900316
INDEX 01 00:00:00
TRACK 02 AUDIO
TITLE “Act I – Scene Two: I. Overture 1928”
PERFORMER “Dream Theater”
ISRC USEW19900317
INDEX 01 02:06:50
TRACK 03 AUDIO
TITLE “Act I – Scene Two: II. Strange Deja Vu”
PERFORMER “Dream Theater”
ISRC USEW19900318
INDEX 01 05:44:42
TRACK 04 AUDIO
TITLE “Act I – Scene Three: I. Through My Words”
PERFORMER “Dream Theater”
ISRC USEW19900319
INDEX 01 10:56:65
TRACK 05 AUDIO
TITLE “Act I – Scene Three: II. Fatal Tragedy”
PERFORMER “Dream Theater”
ISRC USEW19900320
INDEX 01 11:59:02
TRACK 06 AUDIO
TITLE “Act I – Scene Four: Beyond This Life”
PERFORMER “Dream Theater”
ISRC USEW19900321
INDEX 01 18:48:32
TRACK 07 AUDIO
TITLE “Act I – Scene Five: Through Her Eyes”
PERFORMER “Dream Theater”
ISRC USEW19900322
INDEX 01 30:11:10
TRACK 08 AUDIO
TITLE “Act II – Scene Six: Home”
PERFORMER “Dream Theater”
ISRC USEW19900323
INDEX 01 35:40:30
TRACK 09 AUDIO
TITLE “Act II – Scene Seven: I. The Dance Of Eternity”
PERFORMER “Dream Theater”
ISRC USEW19900324
INDEX 01 48:33:57
TRACK 10 AUDIO
TITLE “Act II – Scene Seven: II. One Last Time”
PERFORMER “Dream Theater”
ISRC USEW19900325
INDEX 01 54:47:35
TRACK 11 AUDIO
TITLE “Act II – Scene Eight: The Spirit Carries On”
PERFORMER “Dream Theater”
ISRC USEW19900326
INDEX 01 58:34:15
TRACK 12 AUDIO
TITLE “Act II – Scene Nine: Finally Free”
PERFORMER “Dream Theater”
ISRC USEW19900327
INDEX 01 65:12:35


Spread the Download

Leave a Reply

Your email address will not be published. Required fields are marked *

Enter the text from the image below
 

This site uses Akismet to reduce spam. Learn how your comment data is processed.