Dream Theater – Master Of Metallica




[Total: 0    Average: 0/5]

Artist: Dream Theater
Year: 2002
Genre: Metal
Notes: Discogs
Add. Notes:
Cover incl.: Yes
Encoder: FLAC
Bitrate: ~700 kBit/s (44.1 kHz/16 Bit/s)
Log & Cue incl.: Yes
Size: 293,31 MB
Password: “slam” (without ” “)


All Downloads/Hosters are compatible

Download 1
Share-online.biz
KatFile.com
Rapidgator.net
Download 2
Share-online.biz
KatFile.com
Rapidgator.net

Tracklist:

1 - Battery - 5:19
2 - Master Of Puppets - 8:48
3 - The Thing That Should Not Be - 7:03
4 - Welcome Home (Sanitarium) - 6:45
5 - Disposable Heroes - 8:15
6 - Leper Messiah - 5:55
7 - Orion - 9:24
8 - Damage, Inc. - 6:20

EAC-Log, CUE-Sheed & NFO:

Click to open spoiler
Exact Audio Copy V1.0 beta 1 from 15. November 2010

EAC extraction logfile from 24. December 2010, 13:53

Dream Theater / Master Of Metallica

Used drive : HL-DT-STDVD-ROM GDR8082N Adapter: 1 ID: 0

Read mode : Secure
Utilize accurate stream : Yes
Defeat audio cache : Yes
Make use of C2 pointers : No

Read offset correction : 102
Overread into Lead-In and Lead-Out : No
Fill up missing offset samples with silence : Yes
Delete leading and trailing silent blocks : No
Null samples used in CRC calculations : Yes
Used interface : Installed external ASPI interface

Used output format : Internal WAV Routines
Sample format : 44.100 Hz; 16 Bit; Stereo

TOC of the extracted CD

Track | Start | Length | Start sector | End sector
———————————————————
1 | 0:00.00 | 5:19.35 | 0 | 23959
2 | 5:19.35 | 8:47.42 | 23960 | 63526
3 | 14:07.02 | 7:03.35 | 63527 | 95286
4 | 21:10.37 | 6:44.53 | 95287 | 125639
5 | 27:55.15 | 8:14.67 | 125640 | 162756
6 | 36:10.07 | 5:54.47 | 162757 | 189353
7 | 42:04.54 | 9:24.10 | 189354 | 231663
8 | 51:28.64 | 6:20.28 | 231664 | 260191

Range status and errors

Selected range

Filename Z:\data\mp3\Seeding\Dream Theater\Bootlegs\2002-Master Of Metallica\mom.wav

Peak level 98.8 %
Extraction speed 0.3 X
Range quality 100.0 %
Test CRC 08243D25
Copy CRC 08243D25
Copy OK

No errors occurred

AccurateRip summary

Track 1 not present in database
Track 2 not present in database
Track 3 not present in database
Track 4 not present in database
Track 5 not present in database
Track 6 not present in database
Track 7 not present in database
Track 8 not present in database

None of the tracks are present in the AccurateRip database

End of status report

REM GENRE “Progressive Metal”
REM DATE 2002
REM DISCID 650D8D08
REM COMMENT “ExactAudioCopy v1.0b1”
PERFORMER “Dream Theater”
TITLE “Master Of Metallica”
FILE “mom.flac” WAVE
TRACK 01 AUDIO
TITLE “Battery”
PERFORMER “Dream Theater”
ISRC 000000000000
INDEX 01 00:00:00
TRACK 02 AUDIO
TITLE “Master Of Puppets”
PERFORMER “Dream Theater”
ISRC 000000000000
INDEX 01 05:19:35
TRACK 03 AUDIO
TITLE “The Thing That Should Not Be”
PERFORMER “Dream Theater”
ISRC 000000000000
INDEX 01 14:07:02
TRACK 04 AUDIO
TITLE “Welcome Home (Sanitarium)”
PERFORMER “Dream Theater”
ISRC 000000000000
INDEX 01 21:10:37
TRACK 05 AUDIO
TITLE “Disposable Heroes”
PERFORMER “Dream Theater”
ISRC 000000000000
INDEX 01 27:55:15
TRACK 06 AUDIO
TITLE “Leper Messiah”
PERFORMER “Dream Theater”
ISRC 000000000000
INDEX 01 36:10:07
TRACK 07 AUDIO
TITLE “Orion”
PERFORMER “Dream Theater”
ISRC 000000000000
INDEX 01 42:04:54
TRACK 08 AUDIO
TITLE “Damage, Inc.”
PERFORMER “Dream Theater”
ISRC 000000000000
INDEX 01 51:28:64


Spread the Download

Leave a Reply

Your email address will not be published. Required fields are marked *

Enter the text from the image below
 

This site uses Akismet to reduce spam. Learn how your comment data is processed.