Dream Theater – Live Scenes From New York




Artist: Dream Theater
Year: 2001
Genre: Metal
Notes: Discogs
Add. Notes:
Cover incl.: Yes
Encoder: FLAC
Bitrate: ~900 kBit/s (44.1 kHz/16 Bit/s)
Log & Cue incl.: Yes
Size: 1414,1 MB
Password: “slam” (without ” “)


All Downloads/Hosters are compatible

Download 1
KatFile.com
Turbobit.net
Rapidgator.net
Usersdrive.com
Download 2
KatFile.com
Turbobit.net
Rapidgator.net
Usersdrive.com

Tracklist:

1-1 - Regression - 2:46
1-2 - Overture 1928 - 3:32
1-3 - Strange Déjà Vu - 5:03
1-4 - Through My Words - 1:42
1-5 - Fatal Tragedy - 6:22
1-6 - Beyond This Life - 11:17
1-7 - John & Theresa Solo Spot - 3:18
1-8 - Through Her Eyes - 6:17
1-9 - Home - 13:21
1-10 - The Dance Of Eternity - 6:24

2-1 - One Last Time - 4:12
2-2 - The Spirit Carries On - 7:40
2-3 - Finally Free - 11:00
2-4 - Metropolis Pt. 1 - 10:37
2-5 - The Mirror - 8:15
2-6 - Just Let Me Breathe - 4:03
2-7 - Acid Rain - 2:35
2-8 - Caught In A New Millennium - 6:22
2-9 - Another Day - 5:13
2-10 - Jordan Rudess Keyboard Solo - 6:40

A Mind Beside Itself
3-1 - I. Erotomania - 7:22
3-2 - II. Voices - 9:45
3-3 - III. The Silent Man - 5:09
3-4 - Learning To Live - 14:02
3-5 - A Change Of Seasons - 24:34

Video 1 - Another Day - 
Video 2 - Jordan Rudess Keyboard Solo 

EAC-Log, CUE-Sheed & NFO:

Click to open spoiler
Exact Audio Copy V1.0 beta 1 from 15. November 2010

EAC extraction logfile from 21. December 2010, 20:03

Dream Theater / Live Scenes From New York 1

Used drive : PLEXTOR CD-R PX-240A Adapter: 1 ID: 1

Read mode : Secure
Utilize accurate stream : Yes
Defeat audio cache : Yes
Make use of C2 pointers : No

Read offset correction : 6
Overread into Lead-In and Lead-Out : No
Fill up missing offset samples with silence : Yes
Delete leading and trailing silent blocks : No
Null samples used in CRC calculations : Yes
Used interface : Installed external ASPI interface

Used output format : Internal WAV Routines
Sample format : 44.100 Hz; 16 Bit; Stereo

TOC of the extracted CD

Track | Start | Length | Start sector | End sector
———————————————————
1 | 0:00.32 | 2:46.05 | 32 | 12486
2 | 2:46.37 | 3:32.00 | 12487 | 28386
3 | 6:18.37 | 5:02.43 | 28387 | 51079
4 | 11:21.05 | 1:42.15 | 51080 | 58744
5 | 13:03.20 | 6:21.65 | 58745 | 87384
6 | 19:25.10 | 11:16.67 | 87385 | 138151
7 | 30:42.02 | 3:17.43 | 138152 | 152969
8 | 33:59.45 | 6:17.15 | 152970 | 181259
9 | 40:16.60 | 13:21.12 | 181260 | 241346
10 | 53:37.72 | 6:24.05 | 241347 | 270151

Range status and errors

Selected range

Filename Z:\data\mp3\Seeding\Dream Theater\Live Albums\2001-Live Scenes From New York\scenesny1.wav

Peak level 100.0 %
Extraction speed 0.6 X
Range quality 100.0 %
Test CRC 2E91B548
Copy CRC 2E91B548
Copy OK

No errors occurred

AccurateRip summary

Track 1 accurately ripped (confidence 53) [CBF58085]
Track 2 accurately ripped (confidence 53) [ACD95A0C]
Track 3 accurately ripped (confidence 52) [39D5039C]
Track 4 accurately ripped (confidence 54) [774DC291]
Track 5 accurately ripped (confidence 54) [F56FE223]
Track 6 accurately ripped (confidence 53) [8545E983]
Track 7 accurately ripped (confidence 52) [820182F8]
Track 8 accurately ripped (confidence 52) [D481FA35]
Track 9 accurately ripped (confidence 52) [D537DF38]
Track 10 accurately ripped (confidence 52) [BF89A9BF]

All tracks accurately ripped

End of status report

Exact Audio Copy V1.0 beta 1 from 15. November 2010

EAC extraction logfile from 21. December 2010, 20:03

Dream Theater / Live Scenes from New York 2

Used drive : LITE-ON DVDRW LH-20A1L Adapter: 4 ID: 0

Read mode : Secure
Utilize accurate stream : Yes
Defeat audio cache : Yes
Make use of C2 pointers : No

Read offset correction : 6
Overread into Lead-In and Lead-Out : No
Fill up missing offset samples with silence : Yes
Delete leading and trailing silent blocks : No
Null samples used in CRC calculations : Yes
Used interface : Installed external ASPI interface

Used output format : Internal WAV Routines
Sample format : 44.100 Hz; 16 Bit; Stereo

TOC of the extracted CD

Track | Start | Length | Start sector | End sector
———————————————————
1 | 0:00.32 | 4:11.55 | 32 | 18911
2 | 4:12.12 | 7:40.13 | 18912 | 53424
3 | 11:52.25 | 10:59.45 | 53425 | 102894
4 | 22:51.70 | 10:36.55 | 102895 | 150649
5 | 33:28.50 | 8:15.15 | 150650 | 187789
6 | 41:43.65 | 4:02.72 | 187790 | 206011
7 | 45:46.62 | 2:34.65 | 206012 | 217626
8 | 48:21.52 | 6:21.63 | 217627 | 246264
9 | 54:43.40 | 5:13.07 | 246265 | 269746
10 | 59:56.47 | 6:40.15 | 269747 | 299761

Range status and errors

Selected range

Filename Z:\data\mp3\Seeding\Dream Theater\Live Albums\2001-Live Scenes From New York\scenesny2.wav

Peak level 100.0 %
Extraction speed 0.5 X
Range quality 100.0 %
Test CRC 948439CA
Copy CRC 948439CA
Copy OK

No errors occurred

AccurateRip summary

Track 1 accurately ripped (confidence 53) [701565EA]
Track 2 accurately ripped (confidence 54) [36F2362E]
Track 3 accurately ripped (confidence 54) [BB47FC90]
Track 4 accurately ripped (confidence 54) [7E3344C0]
Track 5 accurately ripped (confidence 53) [2977BF08]
Track 6 accurately ripped (confidence 54) [7284FD6F]
Track 7 accurately ripped (confidence 53) [BB177B09]
Track 8 accurately ripped (confidence 54) [BD79CDA7]
Track 9 accurately ripped (confidence 54) [3F514B6F]
Track 10 accurately ripped (confidence 52) [49BFA933]

All tracks accurately ripped

End of status report

Exact Audio Copy V1.0 beta 1 from 15. November 2010

EAC extraction logfile from 21. December 2010, 21:20

Dream Theater / Live Scenes From New York 3

Used drive : PLEXTOR CD-R PX-240A Adapter: 1 ID: 1

Read mode : Secure
Utilize accurate stream : Yes
Defeat audio cache : Yes
Make use of C2 pointers : No

Read offset correction : 6
Overread into Lead-In and Lead-Out : No
Fill up missing offset samples with silence : Yes
Delete leading and trailing silent blocks : No
Null samples used in CRC calculations : Yes
Used interface : Installed external ASPI interface

Used output format : Internal WAV Routines
Sample format : 44.100 Hz; 16 Bit; Stereo

TOC of the extracted CD

Track | Start | Length | Start sector | End sector
———————————————————
1 | 0:00.00 | 7:22.25 | 0 | 33174
2 | 7:22.25 | 9:44.67 | 33175 | 77041
3 | 17:07.17 | 5:09.05 | 77042 | 100221
4 | 22:16.22 | 14:01.55 | 100222 | 163351
5 | 36:18.02 | 24:33.48 | 163352 | 273874
6 | 63:23.50 | 13:55.32 | 285275 | 347931

Range status and errors

Selected range

Filename Z:\data\mp3\Seeding\Dream Theater\Live Albums\2001-Live Scenes From New York\scenesny3.wav

Peak level 100.0 %
Extraction speed 2.1 X
Range quality 100.0 %
Test CRC 27EF7B0B
Copy CRC 27EF7B0B
Copy OK

No errors occurred

AccurateRip summary

Track 1 accurately ripped (confidence 49) [A5431B12]
Track 2 accurately ripped (confidence 49) [BF5C1D94]
Track 3 accurately ripped (confidence 49) [457F7E8C]
Track 4 accurately ripped (confidence 50) [919A052E]
Track 5 accurately ripped (confidence 49) [04BD7039]

All tracks accurately ripped

End of status report

REM GENRE “Progressive Metal”
REM DATE 2001
REM DISCID 860E120A
REM COMMENT “ExactAudioCopy v1.0b1”
CATALOG 0075596266123
PERFORMER “Dream Theater”
TITLE “Live Scenes From New York 1”
FILE “scenesny1.flac” WAVE
TRACK 01 AUDIO
TITLE “Regression (Live)”
PERFORMER “Dream Theater”
ISRC USEE10100855
INDEX 00 00:00:00
INDEX 01 00:00:32
TRACK 02 AUDIO
TITLE “Overture 1928 (Live)”
PERFORMER “Dream Theater”
ISRC USEE10100879
INDEX 01 02:46:37
TRACK 03 AUDIO
TITLE “Strange Dj Vu (Live)”
PERFORMER “Dream Theater”
ISRC USEE10100856
INDEX 01 06:18:37
TRACK 04 AUDIO
TITLE “Through My Words (Live)”
PERFORMER “Dream Theater”
ISRC USEE10100857
INDEX 01 11:21:05
TRACK 05 AUDIO
TITLE “Fatal Tragedy (Live)”
PERFORMER “Dream Theater”
ISRC USEE10100880
INDEX 01 13:03:20
TRACK 06 AUDIO
TITLE “Beyond This Life (Live)”
PERFORMER “Dream Theater”
ISRC USEE10100859
INDEX 01 19:25:10
TRACK 07 AUDIO
TITLE “John & Theresa Solo Spot (Live)”
PERFORMER “Dream Theater”
ISRC USEE10100860
INDEX 01 30:42:02
TRACK 08 AUDIO
TITLE “Through Her Eyes (Live)”
PERFORMER “Dream Theater”
ISRC USEE10100861
INDEX 01 33:59:45
TRACK 09 AUDIO
TITLE “Home (Live)”
PERFORMER “Dream Theater”
ISRC USEE10100862
INDEX 01 40:16:60
TRACK 10 AUDIO
TITLE “The Dance Of Eternity (Live)”
PERFORMER “Dream Theater”
ISRC USEE10100863
INDEX 01 53:37:72

REM GENRE “Progressive Metal”
REM DATE 2001
REM DISCID 840F9C0A
REM COMMENT “ExactAudioCopy v1.0b1”
CATALOG 0075596266123
PERFORMER “Dream Theater”
TITLE “Live Scenes from New York 2”
FILE “scenesny2.flac” WAVE
TRACK 01 AUDIO
TITLE “One Last Time”
PERFORMER “Dream Theater”
ISRC USEE10100864
INDEX 00 00:00:00
INDEX 01 00:00:32
TRACK 02 AUDIO
TITLE “The Spirit Carries On”
PERFORMER “Dream Theater”
ISRC USEE10100865
INDEX 01 04:12:12
TRACK 03 AUDIO
TITLE “Finally Free”
PERFORMER “Dream Theater”
ISRC USEE10100866
INDEX 01 11:52:25
TRACK 04 AUDIO
TITLE “Metropolis Part 1”
PERFORMER “Dream Theater”
ISRC USEE10100867
INDEX 01 22:51:70
TRACK 05 AUDIO
TITLE “The Mirror”
PERFORMER “Dream Theater”
ISRC USEE10100867
INDEX 01 33:28:50
TRACK 06 AUDIO
TITLE “Just Let Me Breathe”
PERFORMER “Dream Theater”
ISRC USEE10100869
INDEX 01 41:43:65
TRACK 07 AUDIO
TITLE “Acid Rain”
PERFORMER “Dream Theater”
ISRC USEE10100772
INDEX 01 45:46:62
TRACK 08 AUDIO
TITLE “Caught In A New Millennium”
PERFORMER “Dream Theater”
ISRC USEE10100773
INDEX 01 48:21:52
TRACK 09 AUDIO
TITLE “Another Day”
PERFORMER “Dream Theater”
ISRC USEE10100872
INDEX 01 54:43:40
TRACK 10 AUDIO
TITLE “Jordan Rudess Keyboard Solo”
PERFORMER “Dream Theater”
ISRC USEE10100873
INDEX 01 59:56:47

REM GENRE “Progressive Metal”
REM DATE 2001
REM DISCID 44121F06
REM COMMENT “ExactAudioCopy v1.0b1”
CATALOG 0075596266123
PERFORMER “Dream Theater”
TITLE “Live Scenes From New York 3”
FILE “scenesny3.flac” WAVE
TRACK 01 AUDIO
TITLE “I. Erotomania”
PERFORMER “Dream Theater”
ISRC USEE10100874
INDEX 01 00:00:00
TRACK 02 AUDIO
TITLE “II. Voices”
PERFORMER “Dream Theater”
ISRC USEE10100875
INDEX 01 07:22:25
TRACK 03 AUDIO
TITLE “III. The Silent Man”
PERFORMER “Dream Theater”
ISRC USEE10100876
INDEX 01 17:07:17
TRACK 04 AUDIO
TITLE “Learning To Live”
PERFORMER “Dream Theater”
ISRC USEE10100877
INDEX 01 22:16:22
TRACK 05 AUDIO
TITLE “A Change Of Seasons”
PERFORMER “Dream Theater”
ISRC USEE10100878
INDEX 01 36:18:02


Leave a Reply

Your email address will not be published. Required fields are marked *

Enter the text from the image below
 

This site uses Akismet to reduce spam. Learn how your comment data is processed.