Dream Theater – Live Scenes From New York (Japanese Edition)




[Total: 0    Average: 0/5]

Artist: Dream Theater
Year: 2004
Genre: Rock
Notes: Discogs
Add. Notes: Japanese Edition
Cover incl.: Yes
Encoder: FLAC
Bitrate: ~1000 kBit/s (44.1 kHz/16 Bit/s)
Log & Cue incl.: Yes
Size: 1587,4 MB
Password: “slam” (without ” “)


All Downloads/Hosters are compatible

Download 1
Share-online.biz
KatFile.com
Rapidgator.net
Download 2
Share-online.biz
KatFile.com
Rapidgator.net

Tracklist:

1.1 - Regression - 2:46
1.2 - Overture 1928 - 3:32
1.3 - Strange Déjà Vu - 5:03
1.4 - Through My Words - 1:42
1.5 - Fatal Tragedy - 6:22
1.6 - Beyond This Life - 11:17
1.7 - John & Theresa Solo Spot - 3:18
1.8 - Through Her Eyes - 6:17
1.9 - Home - 13:21
1.10 - The Dance Of Eternity - 6:24

2.1 - One Last Time - 4:12
2.2 - The Spirit Carries On - 7:40
2.3 - Finally Free - 11:00
2.4 - Metropolis Pt. 1 - 10:37
2.5 - The Mirror - 8:15
2.6 - Just Let Me Breathe - 4:03
2.7 - Acid Rain - 2:35
2.8 - Caught In A New Millennium - 6:22
2.9 - Another Day - 5:13
2.10 - Jordan Rudess Keyboard Solo - 6:40

A Mind Beside Itself
3.1 - I. Erotomania - 7:22
3.2 - II. Voices - 9:45
3.3 - III. The Silent Man - 5:09
3.4 - Learning To Live - 14:02
3.5 - A Change Of Seasons - 24:34

EAC-Log, CUE-Sheed & NFO:

Click to open spoiler
Exact Audio Copy V1.0 beta 3 from 29. August 2011

EAC extraction logfile from 9. January 2014, 21:57

Dream Theater / Live Scenes From New York (Japan Disc1)

Used drive : LITE-ON DVDRW LH-20A1L Adapter: 7 ID: 0

Read mode : Secure
Utilize accurate stream : Yes
Defeat audio cache : Yes
Make use of C2 pointers : No

Read offset correction : 6
Overread into Lead-In and Lead-Out : No
Fill up missing offset samples with silence : Yes
Delete leading and trailing silent blocks : No
Null samples used in CRC calculations : Yes
Used interface : Installed external ASPI interface

Used output format : Internal WAV Routines
Sample format : 44.100 Hz; 16 Bit; Stereo

TOC of the extracted CD

Track | Start | Length | Start sector | End sector
———————————————————
1 | 0:00.00 | 2:46.05 | 0 | 12454
2 | 2:46.05 | 3:32.00 | 12455 | 28354
3 | 6:18.05 | 5:02.42 | 28355 | 51046
4 | 11:20.47 | 1:42.15 | 51047 | 58711
5 | 13:02.62 | 6:21.65 | 58712 | 87351
6 | 19:24.52 | 11:16.68 | 87352 | 138119
7 | 30:41.45 | 3:17.42 | 138120 | 152936
8 | 33:59.12 | 6:17.15 | 152937 | 181226
9 | 40:16.27 | 13:21.13 | 181227 | 241314
10 | 53:37.40 | 6:24.05 | 241315 | 270119

Range status and errors

Selected range

Filename Z:\data\hexonut\Seeding\Dream Theater\Live Albums\2001-Live Scenes From New York\2001-Warner Music [Japan, AMCY 7291~3]\Live Scenes From New York (Japan Disc1).wav

Peak level 100.0 %
Extraction speed 9.4 X
Range quality 100.0 %
Test CRC 05DDAD0F
Copy CRC 05DDAD0F
Copy OK

No errors occurred

AccurateRip summary

Track 1 accurately ripped (confidence 2) [1804C3A1] (AR v2)
Track 2 accurately ripped (confidence 2) [60F5A4B0] (AR v2)
Track 3 accurately ripped (confidence 2) [F1872BF3] (AR v2)
Track 4 accurately ripped (confidence 2) [52A15A40] (AR v2)
Track 5 accurately ripped (confidence 2) [79B35FEE] (AR v2)
Track 6 accurately ripped (confidence 2) [DE72776C] (AR v2)
Track 7 accurately ripped (confidence 2) [EBF9C61B] (AR v2)
Track 8 accurately ripped (confidence 2) [1D6C9ABE] (AR v2)
Track 9 accurately ripped (confidence 2) [C4B72982] (AR v2)
Track 10 accurately ripped (confidence 2) [A72CBEFF] (AR v2)

All tracks accurately ripped

End of status report

==== Log checksum 82CC1AF310C378E1E2FC4AC28401F5E590DE11B8BBF83E7B13E38EAF459C0E52 ====

Exact Audio Copy V1.0 beta 3 from 29. August 2011

EAC extraction logfile from 9. January 2014, 22:14

Dream Theater / Live Scenes From New York (Japan Disc 2)

Used drive : PLEXTOR CD-R PX-240A Adapter: 0 ID: 0

Read mode : Secure
Utilize accurate stream : Yes
Defeat audio cache : Yes
Make use of C2 pointers : No

Read offset correction : 6
Overread into Lead-In and Lead-Out : No
Fill up missing offset samples with silence : Yes
Delete leading and trailing silent blocks : No
Null samples used in CRC calculations : Yes
Used interface : Installed external ASPI interface

Used output format : Internal WAV Routines
Sample format : 44.100 Hz; 16 Bit; Stereo

TOC of the extracted CD

Track | Start | Length | Start sector | End sector
———————————————————
1 | 0:00.00 | 4:11.55 | 0 | 18879
2 | 4:11.55 | 7:40.12 | 18880 | 53391
3 | 11:51.67 | 10:59.45 | 53392 | 102861
4 | 22:51.37 | 10:36.55 | 102862 | 150616
5 | 33:28.17 | 8:15.15 | 150617 | 187756
6 | 41:43.32 | 4:02.73 | 187757 | 205979
7 | 45:46.30 | 2:34.65 | 205980 | 217594
8 | 48:21.20 | 6:21.62 | 217595 | 246231
9 | 54:43.07 | 5:13.08 | 246232 | 269714
10 | 59:56.15 | 6:40.15 | 269715 | 299729

Range status and errors

Selected range

Filename Z:\data\hexonut\Seeding\Dream Theater\Live Albums\2001-Live Scenes From New York\2001-Warner Music [Japan, AMCY 7291~3]\Dream Theater – Live Scenes From New York (Japan Disc 2).wav

Peak level 100.0 %
Extraction speed 2.6 X
Range quality 100.0 %
Test CRC 437FCD98
Copy CRC 437FCD98
Copy OK

No errors occurred

AccurateRip summary

Track 1 accurately ripped (confidence 2) [CD05AB74] (AR v2)
Track 2 accurately ripped (confidence 2) [2C2AA54D] (AR v2)
Track 3 accurately ripped (confidence 2) [FDF0B04B] (AR v2)
Track 4 accurately ripped (confidence 2) [01A086CF] (AR v2)
Track 5 accurately ripped (confidence 2) [9138C784] (AR v2)
Track 6 accurately ripped (confidence 2) [5819C2C1] (AR v2)
Track 7 accurately ripped (confidence 2) [675FB142] (AR v2)
Track 8 accurately ripped (confidence 2) [90667CE4] (AR v2)
Track 9 accurately ripped (confidence 2) [18596944] (AR v2)
Track 10 accurately ripped (confidence 2) [FA2005B4] (AR v2)

All tracks accurately ripped

End of status report

==== Log checksum 5704907C75C16D72001DA96AD7FD83A34F1690BA8B35FEB48E862FFC1BECD580 ====

Exact Audio Copy V1.0 beta 3 from 29. August 2011

EAC extraction logfile from 9. January 2014, 22:19

Dream Theater / Live Scenes From New York (Japan Disc 3)

Used drive : PLEXTOR DVDR PX-760A Adapter: 0 ID: 1

Read mode : Secure
Utilize accurate stream : Yes
Defeat audio cache : Yes
Make use of C2 pointers : No

Read offset correction : 30
Overread into Lead-In and Lead-Out : Yes
Fill up missing offset samples with silence : Yes
Delete leading and trailing silent blocks : No
Null samples used in CRC calculations : Yes
Used interface : Installed external ASPI interface

Used output format : Internal WAV Routines
Sample format : 44.100 Hz; 16 Bit; Stereo

TOC of the extracted CD

Track | Start | Length | Start sector | End sector
———————————————————
1 | 0:00.00 | 7:22.25 | 0 | 33174
2 | 7:22.25 | 9:44.67 | 33175 | 77041
3 | 17:07.17 | 5:09.05 | 77042 | 100221
4 | 22:16.22 | 14:01.55 | 100222 | 163351
5 | 36:18.02 | 24:33.48 | 163352 | 273874

Range status and errors

Selected range

Filename Z:\data\hexonut\Seeding\Dream Theater\Live Albums\2001-Live Scenes From New York\2001-Warner Music [Japan, AMCY 7291~3]\Live Scenes From New York (Japan Disc 3).wav

Peak level 100.0 %
Extraction speed 2.5 X
Range quality 99.9 %
Test CRC 79D5BD4B
Copy CRC 79D5BD4B
Copy OK

No errors occurred

AccurateRip summary

Track 1 accurately ripped (confidence 2) [C70D7AF0] (AR v2)
Track 2 accurately ripped (confidence 2) [3585CE9D] (AR v2)
Track 3 accurately ripped (confidence 2) [4FEF6DB8] (AR v2)
Track 4 accurately ripped (confidence 2) [5664E80B] (AR v2)
Track 5 accurately ripped (confidence 2) [4BC8A57F] (AR v2)

All tracks accurately ripped

End of status report

==== Log checksum 445D05A58A688D4C0C944049D2857D510E8297F89A4FD63244108AD30702BD55 ====

REM GENRE “Progressive Metal”
REM DATE 2001
REM DISCID 820E110A
REM COMMENT “ExactAudioCopy v1.0b3”
CATALOG 4988029729149
PERFORMER “Dream Theater”
TITLE “Live Scenes From New York (Japan Disc 1)”
FILE “Live Scenes From New York (Japan Disc 1).flac” WAVE
TRACK 01 AUDIO
TITLE “Regression”
PERFORMER “Dream Theater”
ISRC USEE10100855
INDEX 01 00:00:00
TRACK 02 AUDIO
TITLE “Overture 1928”
PERFORMER “Dream Theater”
ISRC USEE10100879
INDEX 01 02:46:05
TRACK 03 AUDIO
TITLE “Strange Deja Vu”
PERFORMER “Dream Theater”
ISRC USEE10100856
INDEX 01 06:18:05
TRACK 04 AUDIO
TITLE “Through My Words”
PERFORMER “Dream Theater”
ISRC USEE10100857
INDEX 01 11:20:47
TRACK 05 AUDIO
TITLE “Fatal Tragedy”
PERFORMER “Dream Theater”
ISRC USEE10100880
INDEX 01 13:02:62
TRACK 06 AUDIO
TITLE “Beyond this Life”
PERFORMER “Dream Theater”
ISRC USEE10100859
INDEX 01 19:24:52
TRACK 07 AUDIO
TITLE “John & Theresa Solo Spot”
PERFORMER “Dream Theater”
ISRC USEE10100860
INDEX 01 30:41:45
TRACK 08 AUDIO
TITLE “Through Her Eyes”
PERFORMER “Dream Theater”
ISRC USEE10100861
INDEX 01 33:59:12
TRACK 09 AUDIO
TITLE “Home”
PERFORMER “Dream Theater”
ISRC USEE10100862
INDEX 01 40:16:27
TRACK 10 AUDIO
TITLE “The Dance of Eternity”
PERFORMER “Dream Theater”
ISRC USEE10100863
INDEX 01 53:37:40

REM GENRE “Progressive Metal”
REM DATE 2001
REM DISCID 340E4305
REM COMMENT “ExactAudioCopy v1.0b3”
CATALOG 4988029729149
PERFORMER “Dream Theater”
TITLE “Live Scenes From New York (Japan Disc 3)”
FILE “Live Scenes From New York (Japan Disc 3).flac” WAVE
TRACK 01 AUDIO
TITLE “A Mind Beside Itself: I. Erotomania (Live)”
PERFORMER “Dream Theater”
ISRC USEE10100874
INDEX 01 00:00:00
TRACK 02 AUDIO
TITLE “A Mind Beside Itself: II. Voices (Live)”
PERFORMER “Dream Theater”
ISRC USEE10100875
INDEX 01 07:22:25
TRACK 03 AUDIO
TITLE “A Mind Beside Itself: III. The Silent Man (Live)”
PERFORMER “Dream Theater”
ISRC USEE10100876
INDEX 01 17:07:17
TRACK 04 AUDIO
TITLE “Learning To Live (Live)”
PERFORMER “Dream Theater”
ISRC USEE10100877
INDEX 01 22:16:22
TRACK 05 AUDIO
TITLE “A Change Of Seasons (Live)”
PERFORMER “Dream Theater”
ISRC USEE10100878
INDEX 01 36:18:02

REM GENRE “Progressive Metal”
REM DATE 2001
REM DISCID 820F9C0A
REM COMMENT “ExactAudioCopy v1.0b3”
CATALOG 4988029729149
PERFORMER “Dream Theater”
TITLE “Live Scenes From New York (Japan Disc 2)”
FILE “Live Scenes From New York (Japan Disc 2).flac” WAVE
TRACK 01 AUDIO
TITLE “One Last Time”
PERFORMER “Dream Theater”
ISRC USEE10100864
INDEX 01 00:00:00
TRACK 02 AUDIO
TITLE “The Spirit Carries On”
PERFORMER “Dream Theater”
ISRC USEE10100865
INDEX 01 04:11:55
TRACK 03 AUDIO
TITLE “Finally Free”
PERFORMER “Dream Theater”
ISRC USEE10100866
INDEX 01 11:51:67
TRACK 04 AUDIO
TITLE “Metropolis Pt.1”
PERFORMER “Dream Theater”
ISRC USEE10100867
INDEX 01 22:51:37
TRACK 05 AUDIO
TITLE “The Mirror”
PERFORMER “Dream Theater”
ISRC USEE10100868
INDEX 01 33:28:17
TRACK 06 AUDIO
TITLE “Just Let Me Breathe”
PERFORMER “Dream Theater”
ISRC USEE10100869
INDEX 01 41:43:32
TRACK 07 AUDIO
TITLE “Acid Rain”
PERFORMER “Dream Theater”
ISRC USEE10100772
INDEX 01 45:46:30
TRACK 08 AUDIO
TITLE “Caught In A New Millennium”
PERFORMER “Dream Theater”
ISRC USEE10100773
INDEX 01 48:21:20
TRACK 09 AUDIO
TITLE “Another Day”
PERFORMER “Dream Theater”
ISRC USEE10100872
INDEX 01 54:43:07
TRACK 10 AUDIO
TITLE “Jordan Rudess Keyboards Solo”
PERFORMER “Dream Theater”
ISRC USEE10100873
INDEX 01 59:56:15


Spread the Download

Leave a Reply

Your email address will not be published. Required fields are marked *

Enter the text from the image below
 

This site uses Akismet to reduce spam. Learn how your comment data is processed.