Dream Theater – Live At The Marquee




[Total: 0    Average: 0/5]

Artist: Dream Theater
Year: 1993
Genre: Metal
Notes: Discogs
Add. Notes:
Cover incl.: Yes
Encoder: FLAC
Bitrate: ~1000 kBit/s (44.1 kHz/16 Bit/s)
Log & Cue incl.: Yes
Size: 349,54 MB
Password: “slam” (without ” “)


All Downloads/Hosters are compatible

Download 1
Share-online.biz
KatFile.com
Rapidgator.net
Download 2
Share-online.biz
KatFile.com
Rapidgator.net

Tracklist:

1 - Metropolis - 9:36
2 - A Fortune In Lies - 5:10
3 - Bombay Vindaloo (Improv. Jam) - 6:48
4 - Surrounded - 6:00
5 - Another Hand - The Killing Hand - 10:30
6 - Pull Me Under - 8:42

EAC-Log, CUE-Sheed & NFO:

Click to open spoiler
Exact Audio Copy V1.0 beta 1 from 15. November 2010

EAC extraction logfile from 19. December 2010, 19:14

Dream Theater / Live At The Marquee

Used drive : LITE-ON DVDRW LH-20A1L Adapter: 4 ID: 0

Read mode : Secure
Utilize accurate stream : Yes
Defeat audio cache : Yes
Make use of C2 pointers : No

Read offset correction : 6
Overread into Lead-In and Lead-Out : No
Fill up missing offset samples with silence : Yes
Delete leading and trailing silent blocks : No
Null samples used in CRC calculations : Yes
Used interface : Installed external ASPI interface

Used output format : Internal WAV Routines
Sample format : 44.100 Hz; 16 Bit; Stereo

TOC of the extracted CD

Track | Start | Length | Start sector | End sector
———————————————————
1 | 0:00.00 | 9:33.00 | 0 | 42974
2 | 9:33.00 | 5:15.13 | 42975 | 66612
3 | 14:48.13 | 6:59.57 | 66613 | 98094
4 | 21:47.70 | 6:00.65 | 98095 | 125159
5 | 27:48.60 | 10:46.53 | 125160 | 173662
6 | 38:35.38 | 8:22.07 | 173663 | 211319

Range status and errors

Selected range

Filename Z:\data\mp3\Seeding\Dream Theater\Live Albums\1993-Live At The Marquee\marquee.wav

Peak level 99.8 %
Extraction speed 0.6 X
Range quality 99.9 %
Test CRC D0AA2016
Copy CRC D0AA2016
Copy OK

No errors occurred

AccurateRip summary

Track 1 accurately ripped (confidence 32) [9863FE7C]
Track 2 accurately ripped (confidence 32) [779D34E1]
Track 3 accurately ripped (confidence 32) [AD05C94A]
Track 4 accurately ripped (confidence 32) [5A6705F2]
Track 5 accurately ripped (confidence 32) [F098F5D7]
Track 6 accurately ripped (confidence 31) [8E41CC25]

All tracks accurately ripped

End of status report

REM GENRE “Progressive Metal”
REM DATE 1993
REM DISCID 4C0B0106
REM COMMENT “ExactAudioCopy v1.0b1”
CATALOG 7567922860202
PERFORMER “Dream Theater”
TITLE “Live At The Marquee”
FILE “marquee.flac” WAVE
TRACK 01 AUDIO
TITLE “Metropolis”
PERFORMER “Dream Theater”
INDEX 01 00:00:00
TRACK 02 AUDIO
TITLE “A Fortune In Lies”
PERFORMER “Dream Theater”
INDEX 01 09:33:00
TRACK 03 AUDIO
TITLE “Bombay Vindaloo”
PERFORMER “Dream Theater”
INDEX 01 14:48:13
TRACK 04 AUDIO
TITLE “Surrounded”
PERFORMER “Dream Theater”
INDEX 01 21:47:70
TRACK 05 AUDIO
TITLE “Another Hand – The Killing Hand”
PERFORMER “Dream Theater”
INDEX 01 27:48:60
TRACK 06 AUDIO
TITLE “Pull Me Under”
PERFORMER “Dream Theater”
INDEX 01 38:35:38


Spread the Download

Leave a Reply

Your email address will not be published. Required fields are marked *

Enter the text from the image below
 

This site uses Akismet to reduce spam. Learn how your comment data is processed.