Dream Theater – Live At Luna Park (Deluxe Edition)




Artist: Dream Theater
Year: 2013
Genre: Metal
Notes: Discogs
Add. Notes: Deluxe Edition
Cover incl.: Yes
Encoder: FLAC
Bitrate: ~900 kBit/s (44.1 kHz/16 Bit/s)
Log & Cue incl.: Yes
Size: 4688 MB
Password: “slam” (without ” “)


All Downloads/Hosters are compatible

Download 1
KatFile.com
Turbobit.net
Rapidgator.net
Download 2
KatFile.com
Turbobit.net
Rapidgator.net

Tracklist:

CD 1
1 - Bridges In The Sky - 11:00
2 - 6:00 - 5:55
3 - The Dark Eternal Night - 10:10
4 - This Is The Life - 7:02
5 - The Root Of All Evil - 9:30
6 - Lost Not Forgotten - 9:58
7 - Drum Solo - 6:19
8 - A Fortune Of Lies - 5:20
9 - The Silent Man - 4:16
10 - Beneath The Surface - 5:29

CD 2
1 - Outcry - 11:30
2 - Piano Solo - 3:04
3 - Surrounded - 6:05
4 - On The Back Of Angels - 8:32
5 - War Inside My Head - 2:14
6 - The Test That Stumped Them All - 
4:55
7 - Guitar Solo - 8:39
8 - The Spirit Carries On - 7:54
9 - Breaking All Illusions - 12:43
10 - Metropolis Pt. 1 - 12:46

CD 3
1 - These Walls - 7:28
2 - Build Me Up Break Me Down - 
7:03
3 - Caught In A Web - 5:41
4 - Wait For Sleep - 2:51
5 - Far From Heaven - 4:07
6 - Pull Me Under - 8:31

EAC-Log, CUE-Sheed & NFO:

Click to open spoiler
Exact Audio Copy V1.0 beta 3 from 29. August 2011

EAC extraction logfile from 14. December 2013, 0:59

Dream Theater / Live At Luna Park CD 1

Used drive : LITE-ON DVDRW LH-20A1L Adapter: 1 ID: 0

Read mode : Secure
Utilize accurate stream : Yes
Defeat audio cache : Yes
Make use of C2 pointers : No

Read offset correction : 6
Overread into Lead-In and Lead-Out : No
Fill up missing offset samples with silence : Yes
Delete leading and trailing silent blocks : No
Null samples used in CRC calculations : Yes
Used interface : Installed external ASPI interface

Used output format : Internal WAV Routines
Sample format : 44.100 Hz; 16 Bit; Stereo

TOC of the extracted CD

Track | Start | Length | Start sector | End sector
———————————————————
1 | 0:00.00 | 11:00.14 | 0 | 49513
2 | 11:00.14 | 5:55.05 | 49514 | 76143
3 | 16:55.19 | 10:09.42 | 76144 | 121860
4 | 27:04.61 | 7:02.31 | 121861 | 153541
5 | 34:07.17 | 9:29.45 | 153542 | 196261
6 | 43:36.62 | 9:57.73 | 196262 | 241109
7 | 53:34.60 | 6:19.28 | 241110 | 269562
8 | 59:54.13 | 5:20.21 | 269563 | 293583
9 | 65:14.34 | 4:15.43 | 293584 | 312751
10 | 69:30.02 | 5:29.21 | 312752 | 337447

Range status and errors

Selected range

Filename Z:\data\hexonut\Seeding\Dream Theater\Live Albums\2013-Live At Luna Park\Live At Luna Park CD 1.wav

Peak level 100.0 %
Extraction speed 9.5 X
Range quality 100.0 %
Test CRC 7450DA57
Copy CRC 7450DA57
Copy OK

No errors occurred

AccurateRip summary

Track 1 accurately ripped (confidence 7) [48E3EB89] (AR v2)
Track 2 accurately ripped (confidence 7) [1EE8E23F] (AR v2)
Track 3 accurately ripped (confidence 7) [BF67D174] (AR v2)
Track 4 accurately ripped (confidence 7) [C26633E0] (AR v2)
Track 5 accurately ripped (confidence 7) [1C5726EE] (AR v2)
Track 6 accurately ripped (confidence 7) [AFBF012A] (AR v2)
Track 7 accurately ripped (confidence 7) [3EDC5677] (AR v2)
Track 8 accurately ripped (confidence 7) [58E30EC4] (AR v2)
Track 9 accurately ripped (confidence 7) [62CCDB17] (AR v2)
Track 10 accurately ripped (confidence 7) [CCF710B1] (AR v2)

All tracks accurately ripped

End of status report

==== Log checksum BFC0620ECED831BB971E02101CFD3557D6664645C14212126541AE52372EEB03 ====

Exact Audio Copy V1.0 beta 3 from 29. August 2011

EAC extraction logfile from 14. December 2013, 1:00

Dream Theater / Live At Luna Park CD 2

Used drive : PLEXTOR CD-R PX-240A Adapter: 0 ID: 0

Read mode : Secure
Utilize accurate stream : Yes
Defeat audio cache : Yes
Make use of C2 pointers : No

Read offset correction : 6
Overread into Lead-In and Lead-Out : No
Fill up missing offset samples with silence : Yes
Delete leading and trailing silent blocks : No
Null samples used in CRC calculations : Yes
Used interface : Installed external ASPI interface

Used output format : Internal WAV Routines
Sample format : 44.100 Hz; 16 Bit; Stereo

TOC of the extracted CD

Track | Start | Length | Start sector | End sector
———————————————————
1 | 0:00.00 | 11:30.42 | 0 | 51791
2 | 11:30.42 | 3:04.51 | 51792 | 65642
3 | 14:35.18 | 6:05.30 | 65643 | 93047
4 | 20:40.48 | 8:32.30 | 93048 | 131477
5 | 29:13.03 | 2:14.73 | 131478 | 141600
6 | 31:28.01 | 4:55.22 | 141601 | 163747
7 | 36:23.23 | 8:39.28 | 163748 | 202700
8 | 45:02.51 | 7:54.19 | 202701 | 238269
9 | 52:56.70 | 12:43.42 | 238270 | 295536
10 | 65:40.37 | 12:46.17 | 295537 | 353003

Range status and errors

Selected range

Filename Z:\data\hexonut\Seeding\Dream Theater\Live Albums\2013-Live At Luna Park\Live At Luna Park CD 2.wav

Peak level 96.6 %
Extraction speed 9.9 X
Range quality 100.0 %
Test CRC FAFDD720
Copy CRC FAFDD720
Copy OK

No errors occurred

AccurateRip summary

Track 1 accurately ripped (confidence 4) [07BE966C] (AR v2)
Track 2 accurately ripped (confidence 4) [8058D8CD] (AR v2)
Track 3 accurately ripped (confidence 4) [4542BB5D] (AR v2)
Track 4 accurately ripped (confidence 4) [5D4EEF61] (AR v2)
Track 5 accurately ripped (confidence 4) [98CE8736] (AR v2)
Track 6 accurately ripped (confidence 4) [1737F76F] (AR v2)
Track 7 accurately ripped (confidence 4) [C99287DF] (AR v2)
Track 8 accurately ripped (confidence 4) [0D3EE8CE] (AR v2)
Track 9 accurately ripped (confidence 4) [2486E673] (AR v2)
Track 10 accurately ripped (confidence 4) [09B5D21C] (AR v2)

All tracks accurately ripped

End of status report

==== Log checksum 124A75DDE249CF3DE7CEA6FD499F28E0E9450AB6495226AB2692726CD6DF1A07 ====

Exact Audio Copy V1.0 beta 3 from 29. August 2011

EAC extraction logfile from 14. December 2013, 0:59

Dream Theater / Live At Luna Park CD 3

Used drive : PLEXTOR DVDR PX-760A Adapter: 0 ID: 1

Read mode : Secure
Utilize accurate stream : Yes
Defeat audio cache : Yes
Make use of C2 pointers : No

Read offset correction : 30
Overread into Lead-In and Lead-Out : Yes
Fill up missing offset samples with silence : Yes
Delete leading and trailing silent blocks : No
Null samples used in CRC calculations : Yes
Used interface : Installed external ASPI interface

Used output format : Internal WAV Routines
Sample format : 44.100 Hz; 16 Bit; Stereo

TOC of the extracted CD

Track | Start | Length | Start sector | End sector
———————————————————
1 | 0:00.00 | 7:28.20 | 0 | 33619
2 | 7:28.20 | 7:03.54 | 33620 | 65398
3 | 14:31.74 | 5:41.45 | 65399 | 91018
4 | 20:13.44 | 2:51.58 | 91019 | 103901
5 | 23:05.27 | 4:07.32 | 103902 | 122458
6 | 27:12.59 | 8:31.09 | 122459 | 160792

Range status and errors

Selected range

Filename Z:\data\hexonut\Seeding\Dream Theater\Live Albums\2013-Live At Luna Park\Live At Luna Park CD 3.wav

Peak level 96.6 %
Extraction speed 2.5 X
Range quality 100.0 %
Test CRC 48F7ADDD
Copy CRC 48F7ADDD
Copy OK

No errors occurred

AccurateRip summary

Track 1 accurately ripped (confidence 5) [01414265] (AR v2)
Track 2 accurately ripped (confidence 5) [AB68A7C5] (AR v2)
Track 3 accurately ripped (confidence 5) [5620313B] (AR v2)
Track 4 accurately ripped (confidence 5) [9DE5746A] (AR v2)
Track 5 accurately ripped (confidence 5) [3CCFA30C] (AR v2)
Track 6 accurately ripped (confidence 5) [562CBFBA] (AR v2)

All tracks accurately ripped

End of status report

==== Log checksum 37AF2C56261491300C6BFAEBEE122819570A154F77E2AE718A6CC510D3E4CB64 ====

REM GENRE “Progressive Metal”
REM DATE 2013
REM DISCID 8C11930A
REM COMMENT “ExactAudioCopy v1.0b3”
PERFORMER “Dream Theater”
TITLE “Live At Luna Park CD 1”
FILE “Live At Luna Park CD 1.flac” WAVE
TRACK 01 AUDIO
TITLE “Bridges In The Sky”
PERFORMER “Dream Theater”
ISRC GBCBR1300013
INDEX 01 00:00:00
TRACK 02 AUDIO
TITLE “6:00”
PERFORMER “Dream Theater”
ISRC GBCBR1300014
INDEX 01 11:00:14
TRACK 03 AUDIO
TITLE “The Dark Eternal Night”
PERFORMER “Dream Theater”
ISRC GBCBR1300015
INDEX 01 16:55:19
TRACK 04 AUDIO
TITLE “This is the Life”
PERFORMER “Dream Theater”
ISRC GBCBR1300016
INDEX 01 27:04:61
TRACK 05 AUDIO
TITLE “The Root of All Evil”
PERFORMER “Dream Theater”
ISRC GBCBR1300017
INDEX 01 34:07:17
TRACK 06 AUDIO
TITLE “Lost Not Forgotten”
PERFORMER “Dream Theater”
ISRC GBCBR1300018
INDEX 01 43:36:62
TRACK 07 AUDIO
TITLE “Drum Solo”
PERFORMER “Dream Theater”
ISRC GBCBR1300019
INDEX 01 53:34:60
TRACK 08 AUDIO
TITLE “A Fortune In Lies”
PERFORMER “Dream Theater”
ISRC GBCBR1300020
INDEX 01 59:54:13
TRACK 09 AUDIO
TITLE “The Silent Man”
PERFORMER “Dream Theater”
ISRC GBCBR1300021
INDEX 01 65:14:34
TRACK 10 AUDIO
TITLE “Beneath The Surface”
PERFORMER “Dream Theater”
ISRC GBCBR1300022
INDEX 01 69:30:02

REM GENRE “Progressive Metal”
REM DATE 2013
REM DISCID 9812620A
REM COMMENT “ExactAudioCopy v1.0b3”
PERFORMER “Dream Theater”
TITLE “Live At Luna Park CD 2”
FILE “Live At Luna Park CD 2.flac” WAVE
TRACK 01 AUDIO
TITLE “Outcry”
PERFORMER “Dream Theater”
ISRC GBCBR1300023
INDEX 01 00:00:00
TRACK 02 AUDIO
TITLE “Piano Solo”
PERFORMER “Dream Theater”
ISRC GBCBR1300024
INDEX 01 11:30:42
TRACK 03 AUDIO
TITLE “Surrounded”
PERFORMER “Dream Theater”
ISRC GBCBR1300025
INDEX 01 14:35:18
TRACK 04 AUDIO
TITLE “On The Backs Of Angels”
PERFORMER “Dream Theater”
ISRC GBCBR1300026
INDEX 01 20:40:48
TRACK 05 AUDIO
TITLE “War Inside My Head”
PERFORMER “Dream Theater”
ISRC GBCBR1300027
INDEX 01 29:13:03
TRACK 06 AUDIO
TITLE “The Test That Stumped Them All”
PERFORMER “Dream Theater”
ISRC GBCBR1300028
INDEX 01 31:28:01
TRACK 07 AUDIO
TITLE “Guitar Solo”
PERFORMER “Dream Theater”
ISRC GBCBR1300029
INDEX 01 36:23:23
TRACK 08 AUDIO
TITLE “The Spirit Carries On”
PERFORMER “Dream Theater”
ISRC GBCBR1300030
INDEX 01 45:02:51
TRACK 09 AUDIO
TITLE “Breaking All Illusions”
PERFORMER “Dream Theater”
ISRC GBCBR1300031
INDEX 01 52:56:70
TRACK 10 AUDIO
TITLE “Metropolis Pt. 1: The Miracle And The Sleeper”
PERFORMER “Dream Theater”
ISRC GBCBR1300032
INDEX 01 65:40:37

REM GENRE “Progressive Metal”
REM DATE 2013
REM DISCID 47085F06
REM COMMENT “ExactAudioCopy v1.0b3”
PERFORMER “Dream Theater”
TITLE “Live At Luna Park CD 3”
FILE “Live At Luna Park CD 3.flac” WAVE
TRACK 01 AUDIO
TITLE “These Walls”
PERFORMER “Dream Theater”
ISRC GBCBR1300048
INDEX 01 00:00:00
TRACK 02 AUDIO
TITLE “Build Me Up, Break Me Down”
PERFORMER “Dream Theater”
ISRC GBCBR1300049
INDEX 01 07:28:20
TRACK 03 AUDIO
TITLE “Caught In A Web”
PERFORMER “Dream Theater”
ISRC GBCBR1300050
INDEX 01 14:31:74
TRACK 04 AUDIO
TITLE “Wait For Sleep”
PERFORMER “Dream Theater”
ISRC GBCBR1300051
INDEX 01 20:13:44
TRACK 05 AUDIO
TITLE “Far From Heaven”
PERFORMER “Dream Theater”
ISRC GBCBR1300052
INDEX 01 23:05:27
TRACK 06 AUDIO
TITLE “Pull Me Under”
PERFORMER “Dream Theater”
ISRC GBCBR1300053
INDEX 01 27:12:59


Leave a Reply

Your email address will not be published. Required fields are marked *

Enter the text from the image below
 

This site uses Akismet to reduce spam. Learn how your comment data is processed.