Dream Theater – Live At Budokan




[Total: 0    Average: 0/5]

Artist: Dream Theater
Year: 2004
Genre: Metal
Notes: Discogs
Add. Notes:
Cover incl.: Yes
Encoder: FLAC
Bitrate: ~1000 kBit/s (44.1 kHz/16 Bit/s)
Log & Cue incl.: Yes
Size: 1170,03 MB
Password: “slam” (without ” “)


All Downloads/Hosters are compatible

Download 1
Share-online.biz
KatFile.com
Rapidgator.net
Download 2
Share-online.biz
KatFile.com
Rapidgator.net

Tracklist:

1-1 - As I Am - 7:25
1-2 - This Dying Soul - 11:44
1-3 - Beyond This Life - 19:37
1-4 - Hollow Years - 9:18
1-5 - War Inside My Head - 2:22
1-6 - The Test That Stumped Them All - 5:00

2-1 - Endless Sacrifice - 11:18
2-2 - Instrumedeley - 12:15
2-3 - Trial Of Tears - 13:49
2-4 - New Millenium - 8:01
2-5 - Keyboard Solo - 3:58
2-6 - Only A Matter Of Time - 7:21

3-1 - Goodnight Kiss - 5:58
3-2 - Solitary Shell - 5:58
3-3 - Stream Of Consciousness - 10:54
3-4 - Disappear - 5:56
3-5 - Pull Me Under - 8:83
3-6 - In The Name Of God - 15:49

EAC-Log, CUE-Sheed & NFO:

Click to open spoiler
Exact Audio Copy V1.0 beta 1 from 15. November 2010

EAC extraction logfile from 23. December 2010, 10:11

Dream Theater / Live At Budokan (Disc 1)

Used drive : LITE-ON DVDRW LH-20A1L Adapter: 4 ID: 0

Read mode : Secure
Utilize accurate stream : Yes
Defeat audio cache : Yes
Make use of C2 pointers : No

Read offset correction : 6
Overread into Lead-In and Lead-Out : No
Fill up missing offset samples with silence : Yes
Delete leading and trailing silent blocks : No
Null samples used in CRC calculations : Yes
Used interface : Installed external ASPI interface

Used output format : Internal WAV Routines
Sample format : 44.100 Hz; 16 Bit; Stereo

TOC of the extracted CD

Track | Start | Length | Start sector | End sector
———————————————————
1 | 0:00.00 | 7:25.62 | 0 | 33436
2 | 7:25.62 | 11:44.30 | 33437 | 86266
3 | 19:10.17 | 19:37.03 | 86267 | 174544
4 | 38:47.20 | 9:18.17 | 174545 | 216411
5 | 48:05.37 | 2:22.45 | 216412 | 227106
6 | 50:28.07 | 5:00.40 | 227107 | 249646

Range status and errors

Selected range

Filename Z:\data\mp3\Seeding\Dream Theater\Live Albums\2004-Live At Budokan\budokan1.wav

Peak level 100.0 %
Extraction speed 0.5 X
Range quality 99.9 %
Test CRC D21C3F4A
Copy CRC D21C3F4A
Copy OK

No errors occurred

AccurateRip summary

Track 1 accurately ripped (confidence 104) [64D5BEA3]
Track 2 accurately ripped (confidence 104) [CD06C908]
Track 3 accurately ripped (confidence 102) [D5C3C70A]
Track 4 accurately ripped (confidence 102) [439C9798]
Track 5 accurately ripped (confidence 103) [BF358073]
Track 6 accurately ripped (confidence 99) [3903551C]

All tracks accurately ripped

End of status report

Exact Audio Copy V1.0 beta 1 from 15. November 2010

EAC extraction logfile from 23. December 2010, 10:27

Dream Theater / Live At Budokan (Disc 2)

Used drive : PLEXTOR CD-R PX-240A Adapter: 1 ID: 1

Read mode : Secure
Utilize accurate stream : Yes
Defeat audio cache : Yes
Make use of C2 pointers : No

Read offset correction : 6
Overread into Lead-In and Lead-Out : No
Fill up missing offset samples with silence : Yes
Delete leading and trailing silent blocks : No
Null samples used in CRC calculations : Yes
Used interface : Installed external ASPI interface

Used output format : Internal WAV Routines
Sample format : 44.100 Hz; 16 Bit; Stereo

TOC of the extracted CD

Track | Start | Length | Start sector | End sector
———————————————————
1 | 0:00.00 | 11:18.55 | 0 | 50904
2 | 11:18.55 | 12:15.00 | 50905 | 106029
3 | 23:33.55 | 13:49.45 | 106030 | 168249
4 | 37:23.25 | 8:02.10 | 168250 | 204409
5 | 45:25.35 | 3:57.67 | 204410 | 222251
6 | 49:23.27 | 7:21.25 | 222252 | 255351

Range status and errors

Selected range

Filename Z:\data\mp3\Seeding\Dream Theater\Live Albums\2004-Live At Budokan\budokan2.wav

Peak level 100.0 %
Extraction speed 0.7 X
Range quality 100.0 %
Test CRC EED6C44F
Copy CRC EED6C44F
Copy OK

No errors occurred

AccurateRip summary

Track 1 accurately ripped (confidence 96) [39579A10]
Track 2 accurately ripped (confidence 95) [798935D0]
Track 3 accurately ripped (confidence 96) [2DC8C1A1]
Track 4 accurately ripped (confidence 95) [DFA01F8B]
Track 5 accurately ripped (confidence 95) [083F22F3]
Track 6 accurately ripped (confidence 92) [AF672C90]

All tracks accurately ripped

End of status report

Exact Audio Copy V1.0 beta 1 from 15. November 2010

EAC extraction logfile from 23. December 2010, 10:27

Dream Theater / Live At Budokan (Disc 3)

Used drive : LITE-ON DVDRW LH-20A1L Adapter: 4 ID: 0

Read mode : Secure
Utilize accurate stream : Yes
Defeat audio cache : Yes
Make use of C2 pointers : No

Read offset correction : 6
Overread into Lead-In and Lead-Out : No
Fill up missing offset samples with silence : Yes
Delete leading and trailing silent blocks : No
Null samples used in CRC calculations : Yes
Used interface : Installed external ASPI interface

Used output format : Internal WAV Routines
Sample format : 44.100 Hz; 16 Bit; Stereo

TOC of the extracted CD

Track | Start | Length | Start sector | End sector
———————————————————
1 | 0:00.00 | 6:16.15 | 0 | 28214
2 | 6:16.15 | 5:58.67 | 28215 | 55131
3 | 12:15.07 | 10:54.05 | 55132 | 104186
4 | 23:09.12 | 5:56.45 | 104187 | 130931
5 | 29:05.57 | 8:38.20 | 130932 | 169801
6 | 37:44.02 | 15:48.73 | 169802 | 240974

Range status and errors

Selected range

Filename Z:\data\mp3\Seeding\Dream Theater\Live Albums\2004-Live At Budokan\budokan3.wav

Peak level 100.0 %
Extraction speed 2.2 X
Range quality 100.0 %
Test CRC FF9E9A61
Copy CRC FF9E9A61
Copy OK

No errors occurred

AccurateRip summary

Track 1 accurately ripped (confidence 98) [AB479135]
Track 2 accurately ripped (confidence 98) [ABBB11D3]
Track 3 accurately ripped (confidence 98) [1E61C0DE]
Track 4 accurately ripped (confidence 98) [89100EA2]
Track 5 accurately ripped (confidence 97) [68775050]
Track 6 accurately ripped (confidence 97) [A70ECCF6]

All tracks accurately ripped

End of status report

REM GENRE “Progressive Metal”
REM DATE 2004
REM DISCID 490D0006
REM COMMENT “ExactAudioCopy v1.0b1”
CATALOG 0081227654528
PERFORMER “Dream Theater”
TITLE “Live At Budokan (Disc 1)”
FILE “budokan1.wav” WAVE
TRACK 01 AUDIO
TITLE “As I Am”
PERFORMER “Dream Theater”
ISRC USEE10412812
INDEX 01 00:00:00
TRACK 02 AUDIO
TITLE “This Dying Soul”
PERFORMER “Dream Theater”
ISRC USEE10412813
INDEX 01 07:25:62
TRACK 03 AUDIO
TITLE “Beyond This Life”
PERFORMER “Dream Theater”
ISRC USEE10412814
INDEX 01 19:10:17
TRACK 04 AUDIO
TITLE “Hollow Years”
PERFORMER “Dream Theater”
ISRC USEE10412814
INDEX 01 38:47:20
TRACK 05 AUDIO
TITLE “War Inside My Head”
PERFORMER “Dream Theater”
ISRC USEE10412816
INDEX 01 48:05:37
TRACK 06 AUDIO
TITLE “The Test That Stumped Them All”
PERFORMER “Dream Theater”
ISRC USEE10412947
INDEX 01 50:28:07

REM GENRE “Progressive Metal”
REM DATE 2004
REM DISCID 500D4C06
REM COMMENT “ExactAudioCopy v1.0b1”
CATALOG 0081227654528
PERFORMER “Dream Theater”
TITLE “Live At Budokan (Disc 2)”
FILE “budokan2.wav” WAVE
TRACK 01 AUDIO
TITLE “Endless Sacrifice”
PERFORMER “Dream Theater”
ISRC USEE10412817
INDEX 01 00:00:00
TRACK 02 AUDIO
TITLE “Instrumedley”
PERFORMER “Dream Theater”
ISRC USEE10412818
INDEX 01 11:18:55
TRACK 03 AUDIO
TITLE “Trial Of Tears”
PERFORMER “Dream Theater”
ISRC USEE10412819
INDEX 01 23:33:55
TRACK 04 AUDIO
TITLE “New Millennium”
PERFORMER “Dream Theater”
ISRC USEE10412820
INDEX 01 37:23:25
TRACK 05 AUDIO
TITLE “Keyboard Solo”
PERFORMER “Dream Theater”
ISRC USEE10412821
INDEX 01 45:25:35
TRACK 06 AUDIO
TITLE “Only A Matter Of Time”
PERFORMER “Dream Theater”
ISRC USEE10412822
INDEX 01 49:23:27

REM GENRE “Progressive Metal”
REM DATE 2004
REM DISCID 560C8D06
REM COMMENT “ExactAudioCopy v1.0b1”
CATALOG 0081227654528
PERFORMER “Dream Theater”
TITLE “Live At Budokan (Disc 3)”
FILE “budokan3.wav” WAVE
TRACK 01 AUDIO
TITLE “Goodnight Kiss”
PERFORMER “Dream Theater”
ISRC USEE10412823
INDEX 01 00:00:00
TRACK 02 AUDIO
TITLE “Solitary Shell”
PERFORMER “Dream Theater”
ISRC USEE10412946
INDEX 01 06:16:15
TRACK 03 AUDIO
TITLE “Stream Of Consciousness”
PERFORMER “Dream Theater”
ISRC USEE10412824
INDEX 01 12:15:07
TRACK 04 AUDIO
TITLE “Disappear”
PERFORMER “Dream Theater”
ISRC USEE10412825
INDEX 01 23:09:12
TRACK 05 AUDIO
TITLE “Pull Me Under”
PERFORMER “Dream Theater”
ISRC USEE10412826
INDEX 01 29:05:57
TRACK 06 AUDIO
TITLE “In The Name Of God”
PERFORMER “Dream Theater”
ISRC USEE10412827
INDEX 01 37:44:02


Spread the Download

Leave a Reply

Your email address will not be published. Required fields are marked *

Enter the text from the image below
 

This site uses Akismet to reduce spam. Learn how your comment data is processed.