Dream Theater – Instrumental II (Your Brain On Our Music)




Artist: Dream Theater
Year: 1992
Genre: Metal
Notes: Discogs
Add. Notes:
Cover incl.: Yes
Encoder: FLAC
Bitrate: ~900 kBit/s (44.1 kHz/16 Bit/s)
Log & Cue incl.: Yes
Size: 357,59 MB
Password: “slam” (without ” “)


All Downloads/Hosters are compatible

Download 1
Turbobit.net
KatFile.com
Rapidgator.net
Usersdrive.com
Download 2
Turbobit.net
KatFile.com
Rapidgator.net
Usersdrive.com

Tracklist:

1 - YYZ - 3:55
2 - Metropolis - Part 1 - 8:57
3 - Another Won - 5:06
4 - The Farandole - 3:08
5 - A Change Of Seasons - 17:51
6 - Stars - 1:37
7 - "Mission: Impossible" Theme - 1:20
8 - Light Guitar Piece - 1:20
9 - Long Island Sound - 6:03
"Guitar Player" Spotlight II - 5:39
10.I. - Confessions Of An Artist - 
10.II. - Somewhere Under The Rainbow

EAC-Log, CUE-Sheed & NFO:

Click to open spoiler
Exact Audio Copy V1.0 beta 1 from 15. November 2010

EAC extraction logfile from 24. December 2010, 16:10

Dream Theater / Instrumental II: Your Brain on Our Music

Used drive : TEAC DVD+-RW DVW28SLC Adapter: 0 ID: 0

Read mode : Secure
Utilize accurate stream : Yes
Defeat audio cache : Yes
Make use of C2 pointers : No

Read offset correction : 48
Overread into Lead-In and Lead-Out : No
Fill up missing offset samples with silence : Yes
Delete leading and trailing silent blocks : No
Null samples used in CRC calculations : Yes
Used interface : Native Win32 interface for Win NT & 2000

Used output format : Internal WAV Routines
Sample format : 44.100 Hz; 16 Bit; Stereo

TOC of the extracted CD

Track | Start | Length | Start sector | End sector
———————————————————
1 | 0:00.00 | 3:55.15 | 0 | 17639
2 | 3:55.15 | 8:57.27 | 17640 | 57941
3 | 12:52.42 | 5:06.35 | 57942 | 80926
4 | 17:59.02 | 3:08.43 | 80927 | 95069
5 | 21:07.45 | 17:51.20 | 95070 | 175414
6 | 38:58.65 | 1:37.57 | 175415 | 182746
7 | 40:36.47 | 1:20.08 | 182747 | 188754
8 | 41:56.55 | 1:20.40 | 188755 | 194794
9 | 43:17.20 | 6:03.67 | 194795 | 222086
10 | 49:21.12 | 5:39.50 | 222087 | 247561

Range status and errors

Selected range

Filename Z:\Seeding\Dream Theater\Bootlegs\1992-Instru Mental II\instrumentalii.wav

Peak level 90.4 %
Extraction speed 0.2 X
Range quality 99.9 %
Test CRC 3C46DFC0
Copy CRC 3C46DFC0
Copy OK

No errors occurred

AccurateRip summary

Track 1 cannot be verified as accurate (confidence 3) [1050FAEA], AccurateRip returned [9A4896CC]
Track 2 cannot be verified as accurate (confidence 3) [4953B7BE], AccurateRip returned [26C86478]
Track 3 cannot be verified as accurate (confidence 3) [AEC86340], AccurateRip returned [9B9FA334]
Track 4 cannot be verified as accurate (confidence 3) [47E509A1], AccurateRip returned [26391AC3]
Track 5 cannot be verified as accurate (confidence 3) [FCCA9D1C], AccurateRip returned [254A33BE]
Track 6 cannot be verified as accurate (confidence 3) [A25DE7FE], AccurateRip returned [606C7868]
Track 7 cannot be verified as accurate (confidence 3) [421B7EC1], AccurateRip returned [5A169AD1]
Track 8 cannot be verified as accurate (confidence 3) [4B26AE7B], AccurateRip returned [1A90F735]
Track 9 cannot be verified as accurate (confidence 3) [94078D1D], AccurateRip returned [6AD57FB4]
Track 10 cannot be verified as accurate (confidence 3) [C2CA7AE2], AccurateRip returned [48341479]

No tracks could be verified as accurate
You may have a different pressing from the one(s) in the database

End of status report

REM GENRE “Progressive Metal”
REM DATE 1992
REM DISCID 930CE40A
REM COMMENT “ExactAudioCopy v1.0b1”
CATALOG 0000000000000
PERFORMER “Dream Theater”
TITLE “Instru Mental II: Your Brain On Our Music”
FILE “instrumentalii.flac” WAVE
TRACK 01 AUDIO
TITLE “YYZ (Lee, Peart, Lifeson)”
PERFORMER “Dream Theater”
INDEX 01 00:00:00
TRACK 02 AUDIO
TITLE “Metropolis Pt. 1”
PERFORMER “Dream Theater”
INDEX 01 03:55:15
TRACK 03 AUDIO
TITLE “Another Won”
PERFORMER “Dream Theater”
INDEX 01 12:52:42
TRACK 04 AUDIO
TITLE “The Farandole (Billy Sheehan)”
PERFORMER “Dream Theater”
INDEX 01 17:59:02
TRACK 05 AUDIO
TITLE “A Change Of Seasons”
PERFORMER “Dream Theater”
INDEX 01 21:07:45
TRACK 06 AUDIO
TITLE “Stars”
PERFORMER “Dream Theater”
INDEX 01 38:58:65
TRACK 07 AUDIO
TITLE “‘Mission: Impossible’ Theme”
PERFORMER “Dream Theater”
INDEX 01 40:36:47
TRACK 08 AUDIO
TITLE “Light Guitar Piece”
PERFORMER “Dream Theater”
INDEX 01 41:56:55
TRACK 09 AUDIO
TITLE “Long Island Sound”
PERFORMER “Dream Theater”
INDEX 01 43:17:20
TRACK 10 AUDIO
TITLE “Guitar Player Spotlight II”
PERFORMER “Dream Theater”
INDEX 01 49:21:12


Leave a Reply

Your email address will not be published. Required fields are marked *

This site uses Akismet to reduce spam. Learn how your comment data is processed.