Dream Theater – Images And Words




Artist: Dream Theater
Year: 1992
Genre: Metal
Notes: Discogs
Add. Notes:
Cover incl.: Yes
Encoder: FLAC
Bitrate: ~1000 kBit/s (44.1 kHz/16 Bit/s)
Log & Cue incl.: Yes
Size: 413,39 MB
Password: “slam” (without ” “)


All Downloads/Hosters are compatible

Download 1
Turbobit.net
NitroFlare.com
KatFile.com
Rapidgator.net
Download 2
Turbobit.net
NitroFlare.com
KatFile.com
Rapidgator.net

Tracklist:

1. Pull Me Under. 8:11
2. Another Day. 4:22
3. Take The Time. 8:21
4. Surrounded. 5:28
5. Metropolis - Part I (The Miracle And The Sleeper). 9:30
6. Under A Glass Moon. 7:02
7. Wait For Sleep. 2:31
8. Learning To Live. 11:30

EAC-Log, CUE-Sheed & NFO:

Click to open spoiler
Exact Audio Copy V1.0 beta 1 from 15. November 2010

EAC extraction logfile from 19. December 2010, 18:39

Dream Theater / Images and Words

Used drive : LITE-ON DVDRW LH-20A1L Adapter: 4 ID: 0

Read mode : Secure
Utilize accurate stream : Yes
Defeat audio cache : Yes
Make use of C2 pointers : No

Read offset correction : 6
Overread into Lead-In and Lead-Out : No
Fill up missing offset samples with silence : Yes
Delete leading and trailing silent blocks : No
Null samples used in CRC calculations : Yes
Used interface : Installed external ASPI interface

Used output format : Internal WAV Routines
Sample format : 44.100 Hz; 16 Bit; Stereo

TOC of the extracted CD

Track | Start | Length | Start sector | End sector
———————————————————
1 | 0:00.32 | 8:13.70 | 32 | 37076
2 | 8:14.27 | 4:23.35 | 37077 | 56836
3 | 12:37.62 | 8:21.13 | 56837 | 94424
4 | 20:59.00 | 5:30.05 | 94425 | 119179
5 | 26:29.05 | 9:32.10 | 119180 | 162089
6 | 36:01.15 | 7:03.30 | 162090 | 193844
7 | 43:04.45 | 2:31.65 | 193845 | 205234
8 | 45:36.35 | 11:30.17 | 205235 | 257001

Range status and errors

Selected range

Filename Z:\data\mp3\Seeding\Dream Theater\Albums\1992-Images And Words\iaw.wav

Peak level 100.0 %
Extraction speed 1.7 X
Range quality 99.9 %
Test CRC 01F1CA4A
Copy CRC 01F1CA4A
Copy OK

No errors occurred

AccurateRip summary

Track 1 accurately ripped (confidence 60) [7DAC23D8]
Track 2 accurately ripped (confidence 59) [5B0ED1AC]
Track 3 accurately ripped (confidence 57) [F839F79F]
Track 4 accurately ripped (confidence 57) [D01FB2B4]
Track 5 accurately ripped (confidence 55) [07AF9D42]
Track 6 accurately ripped (confidence 55) [8E36CDFF]
Track 7 accurately ripped (confidence 58) [F3D75370]
Track 8 accurately ripped (confidence 55) [13BC1FEF]

All tracks accurately ripped

End of status report

REM GENRE “Progressive Metal”
REM DATE 1992
REM DISCID 790D6208
REM COMMENT “ExactAudioCopy v1.0b1”
CATALOG 0075679214829
PERFORMER “Dream Theater”
TITLE “Images and Words”
FILE “iaw.flac” WAVE
TRACK 01 AUDIO
TITLE “Pull Me Under”
PERFORMER “Dream Theater”
INDEX 00 00:00:00
INDEX 01 00:00:32
TRACK 02 AUDIO
TITLE “Another Day”
PERFORMER “Dream Theater”
INDEX 00 08:12:17
INDEX 01 08:14:27
TRACK 03 AUDIO
TITLE “Take the Time”
PERFORMER “Dream Theater”
INDEX 00 12:37:50
INDEX 01 12:37:62
TRACK 04 AUDIO
TITLE “Surrounded”
PERFORMER “Dream Theater”
INDEX 01 20:59:00
TRACK 05 AUDIO
TITLE “Metropolis, Pt. I: The Miracle and the Sleeper”
PERFORMER “Dream Theater”
INDEX 00 26:28:07
INDEX 01 26:29:05
TRACK 06 AUDIO
TITLE “Under a Glass Moon”
PERFORMER “Dream Theater”
INDEX 00 35:59:57
INDEX 01 36:01:15
TRACK 07 AUDIO
TITLE “Wait For Sleep”
PERFORMER “Dream Theater”
INDEX 00 43:04:22
INDEX 01 43:04:45
TRACK 08 AUDIO
TITLE “Learning to Live”
PERFORMER “Dream Theater”
INDEX 01 45:36:35


Leave a Reply

Your email address will not be published. Required fields are marked *

Enter the text from the image below
 

This site uses Akismet to reduce spam. Learn how your comment data is processed.