Dream Theater – Guitar Talkin’




Artist: Dream Theater
Year: 1997
Genre: Rock
Notes: Discogs
Add. Notes:
Cover incl.: Yes
Encoder: FLAC
Bitrate: ~900 kBit/s (44.1 kHz/16 Bit/s)
Log & Cue incl.: Yes
Size: 458,71 MB
Password: “slam” (without ” “)


All Downloads/Hosters are compatible

Download 1
NitroFlare.com
KatFile.com
Turbobit.net
Rapidgator.net
UploadRar.com
Download 2
NitroFlare.com
KatFile.com
Turbobit.net
Rapidgator.net
UploadRar.com

Tracklist:

1 - Lifting Shadows Off A Dream - 
2 - Wait For Sleep - 
3 - Tears - 
4 - The Silent Man - 
5 - Another Day - 
6 - Lost Without You - 
7 - Untitled - 
8 - Final Jamming - 
9 - Raise The Knife (New Song) - 
10 - Learning To Live - 
11 - Take The Time - 
12 - To Live Forever

EAC-Log, CUE-Sheed & NFO:

Click to open spoiler
Exact Audio Copy V1.0 beta 1 from 15. November 2010

EAC extraction logfile from 24. December 2010, 16:17

Dream Theater / Guitar Talkin’ (Acoustic & Clinic)

Used drive : HL-DT-STDVD-ROM GDR8082N Adapter: 1 ID: 0

Read mode : Secure
Utilize accurate stream : Yes
Defeat audio cache : Yes
Make use of C2 pointers : No

Read offset correction : 102
Overread into Lead-In and Lead-Out : No
Fill up missing offset samples with silence : Yes
Delete leading and trailing silent blocks : No
Null samples used in CRC calculations : Yes
Used interface : Installed external ASPI interface

Used output format : Internal WAV Routines
Sample format : 44.100 Hz; 16 Bit; Stereo

TOC of the extracted CD

Track | Start | Length | Start sector | End sector
———————————————————
1 | 0:00.00 | 5:29.36 | 0 | 24710
2 | 5:29.36 | 2:52.58 | 24711 | 37668
3 | 8:22.19 | 3:20.30 | 37669 | 52698
4 | 11:42.49 | 3:37.12 | 52699 | 68985
5 | 15:19.61 | 4:58.30 | 68986 | 91365
6 | 20:18.16 | 5:58.29 | 91366 | 118244
7 | 26:16.45 | 7:18.28 | 118245 | 151122
8 | 33:34.73 | 10:37.58 | 151123 | 198955
9 | 44:12.56 | 10:06.46 | 198956 | 244451
10 | 54:19.27 | 9:37.09 | 244452 | 287735
11 | 63:56.36 | 5:45.21 | 287736 | 313631
12 | 69:41.57 | 4:16.29 | 313632 | 332860

Range status and errors

Selected range

Filename Z:\data\mp3\Seeding\Dream Theater\Bootlegs\1996-Guitar Talkin’\guitartalkin.wav

Peak level 100.0 %
Extraction speed 0.1 X
Range quality 99.9 %
Test CRC ECE2E28C
Copy CRC ECE2E28C
Copy OK

No errors occurred

AccurateRip summary

Track 1 accurately ripped (confidence 1) [4EC7FD3F]
Track 2 accurately ripped (confidence 1) [9827B9F7]
Track 3 accurately ripped (confidence 1) [7AB84F4A]
Track 4 accurately ripped (confidence 1) [E20297A6]
Track 5 accurately ripped (confidence 1) [7A9D3B83]
Track 6 accurately ripped (confidence 1) [F21C6FE5]
Track 7 accurately ripped (confidence 1) [569632B3]
Track 8 accurately ripped (confidence 1) [8CE45DAE]
Track 9 accurately ripped (confidence 1) [A2D73585]
Track 10 accurately ripped (confidence 1) [F39749D0]
Track 11 accurately ripped (confidence 1) [A3673379]
Track 12 accurately ripped (confidence 1) [D14FA38E]

All tracks accurately ripped

End of status report

REM GENRE “Progressive Metal”
REM DATE 1996
REM DISCID 8F11560C
REM COMMENT “ExactAudioCopy v1.0b1”
PERFORMER “Dream Theater”
TITLE “Guitar Talkin’ (Acoustic & Clinic)”
FILE “guitartalkin.flac” WAVE
TRACK 01 AUDIO
TITLE “Lifting Shadows Off A Dream”
PERFORMER “Dream Theater”
INDEX 01 00:00:00
TRACK 02 AUDIO
TITLE “Wait For Sleep”
PERFORMER “Dream Theater”
INDEX 00 05:27:36
INDEX 01 05:29:36
TRACK 03 AUDIO
TITLE “Tears”
PERFORMER “Dream Theater”
INDEX 00 08:20:19
INDEX 01 08:22:19
TRACK 04 AUDIO
TITLE “The Silent Man”
PERFORMER “Dream Theater”
INDEX 00 11:40:49
INDEX 01 11:42:49
TRACK 05 AUDIO
TITLE “Another Day”
PERFORMER “Dream Theater”
INDEX 00 15:17:61
INDEX 01 15:19:61
TRACK 06 AUDIO
TITLE “Lost Without You”
PERFORMER “Dream Theater”
INDEX 00 20:16:16
INDEX 01 20:18:16
TRACK 07 AUDIO
TITLE “Untitled (Demo Petrucci – New Song)”
PERFORMER “Dream Theater”
INDEX 00 26:14:45
INDEX 01 26:16:45
TRACK 08 AUDIO
TITLE “Final Jamming”
PERFORMER “Dream Theater”
INDEX 00 33:32:73
INDEX 01 33:34:73
TRACK 09 AUDIO
TITLE “Raise The Knife (New Song)”
PERFORMER “Dream Theater”
INDEX 00 44:10:56
INDEX 01 44:12:56
TRACK 10 AUDIO
TITLE “Learning To Live”
PERFORMER “Dream Theater”
INDEX 00 54:17:27
INDEX 01 54:19:27
TRACK 11 AUDIO
TITLE “Take The Time”
PERFORMER “Dream Theater”
INDEX 00 63:54:36
INDEX 01 63:56:36
TRACK 12 AUDIO
TITLE “To Live Forever”
PERFORMER “Dream Theater”
INDEX 00 69:39:57
INDEX 01 69:41:57


Leave a Reply

Your email address will not be published. Required fields are marked *

This site uses Akismet to reduce spam. Learn how your comment data is processed.