Dream Theater – Greatest Hit (…And 21 Other Pretty Cool Songs)




Artist: Dream Theater
Year: 2008
Genre: Metal
Notes: Discogs
Add. Notes:
Cover incl.: Yes
Encoder: FLAC
Bitrate: ~900 kBit/s (44.1 kHz/16 Bit/s)
Log & Cue incl.: Yes
Size: 1000,95 MB
Password: “slam” (without ” “)


All Downloads/Hosters are compatible

Download 1
Turbobit.net
Rapidgator.net
KatFile.com
UploadRar.com
Download 2
Turbobit.net
Rapidgator.net
KatFile.com
UploadRar.com

Tracklist:

(The Dark Side)
1-1 - Pull Me Under (2007 Remix) - 8:13
1-2 - Take The Time (2007 Remix) - 8:22
1-3 - Lie (Edited Version) - 5:01
1-4 - Peruvian Skies - 6:42
1-5 - Home (Edited Version) - 5:38
1-6 - Misunderstood (Edited Version) - 5:14
1-7 - The Test That Stumped Them All - 5:00
1-8 - As I Am - 7:14
1-9 - Endless Sacrifice - 11:23
1-10 - The Root Of All Evil - 7:16
1-11 - Sacrificed Sons - 9:41
(The Light Side)
2-1 - Another Day (2007 Remix) - 4:25
2-2 - To Live Forever - 4:56
2-3 - Lifting Shadows Off A Dream - 6:09
2-4 - The Silent Man - 3:47
2-5 - Hollow Years - 5:55
2-6 - Through Her Eyes (Alternate Album Mix) - 6:03
2-7 - The Spirit Carries On - 6:40
2-8 - Solitary Shell (Edited Version) - 4:10
2-9 - I Walk Beside You - 4:28
2-10 - The Answer Lies Within - 5:15
2-11 - Disappear - 6:45

EAC-Log, CUE-Sheed & NFO:

Click to open spoiler
Exact Audio Copy V1.0 beta 1 from 15. November 2010

EAC extraction logfile from 23. December 2010, 11:12

Dream Theater / Greatest Hit (…And 21 Other Pretty Cool Songs) (Disc 1)

Used drive : PLEXTOR CD-R PX-240A Adapter: 1 ID: 1

Read mode : Secure
Utilize accurate stream : Yes
Defeat audio cache : Yes
Make use of C2 pointers : No

Read offset correction : 6
Overread into Lead-In and Lead-Out : No
Fill up missing offset samples with silence : Yes
Delete leading and trailing silent blocks : No
Null samples used in CRC calculations : Yes
Used interface : Installed external ASPI interface

Used output format : Internal WAV Routines
Sample format : 44.100 Hz; 16 Bit; Stereo

TOC of the extracted CD

Track | Start | Length | Start sector | End sector
———————————————————
1 | 0:00.00 | 8:13.47 | 0 | 37021
2 | 8:13.47 | 8:22.34 | 37022 | 74705
3 | 16:36.06 | 5:01.60 | 74706 | 97340
4 | 21:37.66 | 6:42.68 | 97341 | 127558
5 | 28:20.59 | 5:38.47 | 127559 | 152955
6 | 33:59.31 | 5:14.57 | 152956 | 176562
7 | 39:14.13 | 5:00.51 | 176563 | 199113
8 | 44:14.64 | 7:14.70 | 199114 | 231733
9 | 51:29.59 | 11:23.45 | 231734 | 283003
10 | 62:53.29 | 7:16.16 | 283004 | 315719
11 | 70:09.45 | 9:41.41 | 315720 | 359335

Range status and errors

Selected range

Filename Z:\data\mp3\Seeding\Dream Theater\Albums\2008-Greatest Hit\hit1.wav

Peak level 96.5 %
Extraction speed 0.8 X
Range quality 100.0 %
Test CRC BA8FB5C6
Copy CRC BA8FB5C6
Copy OK

No errors occurred

AccurateRip summary

Track 1 accurately ripped (confidence 38) [A977316D]
Track 2 accurately ripped (confidence 38) [0CB80DE2]
Track 3 accurately ripped (confidence 38) [C501AAEC]
Track 4 accurately ripped (confidence 38) [BA2273CC]
Track 5 accurately ripped (confidence 38) [24DC8AD1]
Track 6 accurately ripped (confidence 38) [C6D1ABBA]
Track 7 accurately ripped (confidence 37) [DE11491D]
Track 8 accurately ripped (confidence 36) [E178407F]
Track 9 accurately ripped (confidence 29) [A2E0A462]
Track 10 accurately ripped (confidence 28) [271B065D]
Track 11 accurately ripped (confidence 30) [4D50EDAB]

All tracks accurately ripped

End of status report

Exact Audio Copy V1.0 beta 1 from 15. November 2010

EAC extraction logfile from 23. December 2010, 11:13

Dream Theater / Greatest Hit (…And 21 Other Pretty Cool Songs) (Disc 2)

Used drive : LITE-ON DVDRW LH-20A1L Adapter: 4 ID: 0

Read mode : Secure
Utilize accurate stream : Yes
Defeat audio cache : Yes
Make use of C2 pointers : No

Read offset correction : 6
Overread into Lead-In and Lead-Out : No
Fill up missing offset samples with silence : Yes
Delete leading and trailing silent blocks : No
Null samples used in CRC calculations : Yes
Used interface : Installed external ASPI interface

Used output format : Internal WAV Routines
Sample format : 44.100 Hz; 16 Bit; Stereo

TOC of the extracted CD

Track | Start | Length | Start sector | End sector
———————————————————
1 | 0:00.00 | 4:25.12 | 0 | 19886
2 | 4:25.12 | 4:56.28 | 19887 | 42114
3 | 9:21.40 | 6:09.42 | 42115 | 69831
4 | 15:31.07 | 3:47.55 | 69832 | 86911
5 | 19:18.62 | 5:55.37 | 86912 | 113573
6 | 25:14.24 | 6:03.16 | 113574 | 140814
7 | 31:17.40 | 6:39.72 | 140815 | 170811
8 | 37:57.37 | 4:10.41 | 170812 | 189602
9 | 42:08.03 | 4:28.58 | 189603 | 209760
10 | 46:36.61 | 5:15.63 | 209761 | 233448
11 | 51:52.49 | 6:45.38 | 233449 | 263861

Range status and errors

Selected range

Filename Z:\data\mp3\Seeding\Dream Theater\Albums\2008-Greatest Hit\hit2.wav

Peak level 96.5 %
Extraction speed 0.4 X
Range quality 100.0 %
Test CRC 8C995697
Copy CRC 8C995697
Copy OK

No errors occurred

AccurateRip summary

Track 1 accurately ripped (confidence 36) [E481D909]
Track 2 accurately ripped (confidence 37) [64A0BE79]
Track 3 accurately ripped (confidence 37) [34950A01]
Track 4 accurately ripped (confidence 37) [D82C6824]
Track 5 accurately ripped (confidence 37) [F4534E55]
Track 6 accurately ripped (confidence 37) [F6BA5C8B]
Track 7 accurately ripped (confidence 37) [2071856B]
Track 8 accurately ripped (confidence 36) [21044937]
Track 9 accurately ripped (confidence 37) [AFA68D32]
Track 10 accurately ripped (confidence 36) [B65AAE4A]
Track 11 accurately ripped (confidence 36) [CB68D55C]

All tracks accurately ripped

End of status report

REM GENRE “Progressive Metal”
REM DATE 2008
REM DISCID A212B70B
REM COMMENT “ExactAudioCopy v1.0b1”
CATALOG 0081227993818
PERFORMER “Dream Theater”
TITLE “Greatest Hit (…And 21 Other Pretty Cool Songs) (Disc 1)”
FILE “hit1.flac” WAVE
TRACK 01 AUDIO
TITLE “Pull Me Under”
PERFORMER “Dream Theater”
ISRC USAT20706802
INDEX 01 00:00:00
TRACK 02 AUDIO
TITLE “Take The Time”
PERFORMER “Dream Theater”
ISRC USAT20706803
INDEX 00 08:12:27
INDEX 01 08:13:47
TRACK 03 AUDIO
TITLE “Lie”
PERFORMER “Dream Theater”
ISRC USAT20706804
INDEX 00 16:34:61
INDEX 01 16:36:06
TRACK 04 AUDIO
TITLE “Peruvian Skies”
PERFORMER “Dream Theater”
ISRC USEE10701880
INDEX 00 21:36:46
INDEX 01 21:37:66
TRACK 05 AUDIO
TITLE “Home”
PERFORMER “Dream Theater”
ISRC USEE10701881
INDEX 00 28:19:39
INDEX 01 28:20:59
TRACK 06 AUDIO
TITLE “Misunderstood”
PERFORMER “Dream Theater”
ISRC USEE10701882
INDEX 00 33:58:11
INDEX 01 33:59:31
TRACK 07 AUDIO
TITLE “The Test That Stumped Them All”
PERFORMER “Dream Theater”
ISRC USEE10701883
INDEX 00 39:12:68
INDEX 01 39:14:13
TRACK 08 AUDIO
TITLE “As I Am”
PERFORMER “Dream Theater”
ISRC USEE10701884
INDEX 00 44:13:44
INDEX 01 44:14:64
TRACK 09 AUDIO
TITLE “Endless Sacrifice”
PERFORMER “Dream Theater”
ISRC USEE10701885
INDEX 00 51:28:39
INDEX 01 51:29:59
TRACK 10 AUDIO
TITLE “The Root Of All Evil”
PERFORMER “Dream Theater”
ISRC USAT20706805
INDEX 00 62:52:09
INDEX 01 62:53:29
TRACK 11 AUDIO
TITLE “Sacrificed Sons”
PERFORMER “Dream Theater”
ISRC USAT20706806
INDEX 00 70:08:25
INDEX 01 70:09:45

REM GENRE “Progressive Metal”
REM DATE 2008
REM DISCID 9D0DBE0B
REM COMMENT “ExactAudioCopy v1.0b1”
CATALOG 0081227993818
PERFORMER “Dream Theater”
TITLE “Greatest Hit (…And 21 Other Pretty Cool Songs) (Disc 2) ”
FILE “hit2.flac” WAVE
TRACK 01 AUDIO
TITLE “Another Day”
PERFORMER “Dream Theater”
ISRC USAT20706807
INDEX 01 00:00:00
TRACK 02 AUDIO
TITLE “To Live Forever”
PERFORMER “Dream Theater”
ISRC USAT20706808
INDEX 00 04:23:47
INDEX 01 04:25:12
TRACK 03 AUDIO
TITLE “Lifting Shadows Off A Dream”
PERFORMER “Dream Theater”
ISRC USAT20706809
INDEX 00 09:20:00
INDEX 01 09:21:40
TRACK 04 AUDIO
TITLE “The Silent Man”
PERFORMER “Dream Theater”
ISRC USAT20706810
INDEX 00 15:29:47
INDEX 01 15:31:07
TRACK 05 AUDIO
TITLE “Hollow Years”
PERFORMER “Dream Theater”
ISRC USEE10701886
INDEX 00 19:17:22
INDEX 01 19:18:62
TRACK 06 AUDIO
TITLE “Through Her Eyes”
PERFORMER “Dream Theater”
ISRC USEE10701887
INDEX 00 25:12:59
INDEX 01 25:14:24
TRACK 07 AUDIO
TITLE “The Spirit Carries On”
PERFORMER “Dream Theater”
ISRC USEE10701888
INDEX 00 31:16:00
INDEX 01 31:17:40
TRACK 08 AUDIO
TITLE “Solitary Shell”
PERFORMER “Dream Theater”
ISRC USEE10701889
INDEX 00 37:55:72
INDEX 01 37:57:37
TRACK 09 AUDIO
TITLE “I Walk Beside You”
PERFORMER “Dream Theater”
ISRC USAT20706811
INDEX 00 42:06:43
INDEX 01 42:08:03
TRACK 10 AUDIO
TITLE “The Answer Lies Within”
PERFORMER “Dream Theater”
ISRC USAT20706812
INDEX 00 46:35:26
INDEX 01 46:36:61
TRACK 11 AUDIO
TITLE “Disappear”
PERFORMER “Dream Theater”
ISRC USEE10701890
INDEX 00 51:51:09
INDEX 01 51:52:49


Leave a Reply

Your email address will not be published. Required fields are marked *

This site uses Akismet to reduce spam. Learn how your comment data is processed.