Dream Theater – Forbidden Dreams




Artist: Dream Theater
Year: 2002
Genre: Rock
Notes: Discogs
Add. Notes:
Cover incl.: Yes
Encoder: FLAC
Bitrate: ~800 kBit/s (44.1 kHz/16 Bit/s)
Log & Cue incl.: Yes
Size: 2024 MB
Password: “slam” (without ” “)


All Downloads/Hosters are compatible

Download 1
KatFile.com
Rapidgator.net
Turbobit.net
Download 2
KatFile.com
Rapidgator.net
Turbobit.net

Tracklist:

1-1. Intro - Simpsons Theme  
1-2. Metropolis - Part I  
1-3. Under A Glass Moon  
1-4. Only A Matter Of Time  
1-5. Surrounded  
1-6. Pull Me Under  
1-7. Ytsejam  

2-1. Moon Bubbles  
2-2. Another Day  
2-3. Another Hand / The Killing Hand  
2-4. Take The Time  
2-6. Wait For Sleep  
2-7. Twin Peaks Theme  
2-8. Outro  

3-1. Metropolis - Part I  
3-2. Learning To Live  
3-3. Afterlife  
3-4. Under A Glass Moon  
3-5. Wait For Sleep  
3-6. Surrounded  
3-7. Ytsejam  
3-8. Take The Time  

4-1. To Live Forever  
4-2. Improvised Jam  
4-3. Fortune In Lies  
4-4. Another Day  
4-5. Pull Me Under  
4-6. Eve  
4-7. Learning To Live  

5-1. Pull Me Under  
5-2. 6:00  
5-3. Take The Time  
5-4. Caught In A Web  
5-5. Lifting Shadows Off A Dream  
5-6. Improvised Jam  
5-7. Puppies On Acid  
5-8. The Mirror  
5-9. Lie  

6-1. Another Day  
6-2. In The Flesh (Pink Floyd)  
6-3. Erotomania  
6-4. Voices  
6-5. The Silent Man  
6-6. Metropolis - Part I  
6-7. Eve (Outro)

EAC-Log, CUE-Sheed & NFO:

Click to open spoiler
Exact Audio Copy V1.1 from 23. June 2015

EAC extraction logfile from 16. June 2016, 22:03

Dream Theater / Forbidden Dreams CD 1 – Imperial Hall Osaka, Japan 1992-11-19

Used drive : HL-DT-STBD-RE WH16NS40 Adapter: 6 ID: 0

Read mode : Secure
Utilize accurate stream : Yes
Defeat audio cache : Yes
Make use of C2 pointers : No

Read offset correction : 6
Overread into Lead-In and Lead-Out : No
Fill up missing offset samples with silence : Yes
Delete leading and trailing silent blocks : No
Null samples used in CRC calculations : Yes
Used interface : Installed external ASPI interface

Used output format : Internal WAV Routines
Sample format : 44.100 Hz; 16 Bit; Stereo

TOC of the extracted CD

Track | Start | Length | Start sector | End sector
———————————————————
1 | 0:00.00 | 1:12.03 | 0 | 5402
2 | 1:12.03 | 9:50.68 | 5403 | 49720
3 | 11:02.71 | 7:29.65 | 49721 | 83460
4 | 18:32.61 | 6:55.27 | 83461 | 114612
5 | 25:28.13 | 5:48.73 | 114613 | 140785
6 | 31:17.11 | 8:34.52 | 140786 | 179387
7 | 39:51.63 | 9:41.14 | 179388 | 222976

Range status and errors

Selected range

Filename Z:\data\hexonut\Seeding\Dream Theater\Bootlegs\2002-Forbidden Dreams\Forbidden Dreams CD 1 – Imperial Hall Osaka, Japan 1992-11-19.wav

Peak level 100.0 %
Extraction speed 8.5 X
Range quality 100.0 %
Test CRC A38476A5
Copy CRC A38476A5
Copy OK

No errors occurred

AccurateRip summary

Track 1 accurately ripped (confidence 3) [72B76C4B] (AR v1)
Track 2 accurately ripped (confidence 3) [D1F17DD1] (AR v1)
Track 3 accurately ripped (confidence 3) [1E57C7EB] (AR v1)
Track 4 accurately ripped (confidence 3) [E2C9E66D] (AR v1)
Track 5 accurately ripped (confidence 3) [6B01DBA4] (AR v1)
Track 6 accurately ripped (confidence 1) [2CE8C934] (AR v1)
Track 7 accurately ripped (confidence 1) [9E7AD0AF] (AR v1)

All tracks accurately ripped

End of status report

==== Log checksum A368CCC0E532C314ED2460044A10FAF644D5A4ADBAFDCF0E924D43807ED81A21 ====

Exact Audio Copy V1.1 from 23. June 2015

EAC extraction logfile from 16. June 2016, 19:00

Dream Theater / Forbidden Dreams CD 2 – Imperial Hall Osaka, Japan 1992-11-19

Used drive : PLEXTOR CD-R PX-240A Adapter: 0 ID: 0

Read mode : Secure
Utilize accurate stream : Yes
Defeat audio cache : Yes
Make use of C2 pointers : No

Read offset correction : 6
Overread into Lead-In and Lead-Out : No
Fill up missing offset samples with silence : Yes
Delete leading and trailing silent blocks : No
Null samples used in CRC calculations : Yes
Used interface : Installed external ASPI interface

Used output format : Internal WAV Routines
Sample format : 44.100 Hz; 16 Bit; Stereo

TOC of the extracted CD

Track | Start | Length | Start sector | End sector
———————————————————
1 | 0:00.00 | 10:00.16 | 0 | 45015
2 | 10:00.16 | 4:22.70 | 45016 | 64735
3 | 14:23.11 | 11:56.26 | 64736 | 118461
4 | 26:19.37 | 12:25.42 | 118462 | 174378
5 | 38:45.04 | 3:49.49 | 174379 | 191602
6 | 42:34.53 | 13:23.43 | 191603 | 251870
7 | 55:58.21 | 1:35.09 | 251871 | 259004

Range status and errors

Selected range

Filename Z:\data\hexonut\Seeding\Dream Theater\Bootlegs\2002-Forbidden Dreams\Forbidden Dreams CD 2 – Imperial Hall Osaka, Japan 1992-11-19.wav

Peak level 100.0 %
Extraction speed 6.0 X
Range quality 100.0 %
Test CRC 82B4D3CB
Copy CRC 82B4D3CB
Copy OK

No errors occurred

AccurateRip summary

Track 1 accurately ripped (confidence 2) [D21F9105] (AR v1)
Track 2 accurately ripped (confidence 2) [FD5F4567] (AR v1)
Track 3 accurately ripped (confidence 2) [7E097735] (AR v1)
Track 4 accurately ripped (confidence 2) [CD8B7B96] (AR v1)
Track 5 accurately ripped (confidence 2) [F2B208F3] (AR v1)
Track 6 accurately ripped (confidence 2) [2D339112] (AR v1)
Track 7 accurately ripped (confidence 2) [FD989186] (AR v1)

All tracks accurately ripped

End of status report

==== Log checksum 3304DA4E8983363EA633E0692045706E671B26F34F1C052E8D4E8B67BB95677A ====

Exact Audio Copy V1.1 from 23. June 2015

EAC extraction logfile from 16. June 2016, 19:25

Dream Theater / Forbidden Dreams CD 3 Festival Hall Osaka, Japan 1993-08-28

Used drive : HL-DT-STBD-RE WH16NS40 Adapter: 6 ID: 0

Read mode : Secure
Utilize accurate stream : Yes
Defeat audio cache : Yes
Make use of C2 pointers : No

Read offset correction : 6
Overread into Lead-In and Lead-Out : No
Fill up missing offset samples with silence : Yes
Delete leading and trailing silent blocks : No
Null samples used in CRC calculations : Yes
Used interface : Installed external ASPI interface

Used output format : Internal WAV Routines
Sample format : 44.100 Hz; 16 Bit; Stereo

TOC of the extracted CD

Track | Start | Length | Start sector | End sector
———————————————————
1 | 0:00.00 | 9:33.26 | 0 | 43000
2 | 9:33.26 | 1:17.24 | 43001 | 48799
3 | 10:50.50 | 6:24.58 | 48800 | 77657
4 | 17:15.33 | 7:41.36 | 77658 | 112268
5 | 24:56.69 | 2:46.64 | 112269 | 124782
6 | 27:43.58 | 6:19.49 | 124783 | 153256
7 | 34:03.32 | 10:54.36 | 153257 | 202342
8 | 44:57.68 | 1:56.40 | 202343 | 211082
9 | 46:54.33 | 11:01.01 | 211083 | 260658

Range status and errors

Selected range

Filename Z:\data\hexonut\Seeding\Dream Theater\Bootlegs\2002-Forbidden Dreams\Forbidden Dreams CD 3 Festival Hall Osaka, Japan 1993-08-28 .wav

Peak level 100.0 %
Extraction speed 7.5 X
Range quality 100.0 %
Test CRC AD6EFBF5
Copy CRC AD6EFBF5
Copy OK

No errors occurred

AccurateRip summary

Track 1 cannot be verified as accurate (confidence 1) [5ED3D741], AccurateRip returned [D3EE22F1] (AR v2)
Track 2 cannot be verified as accurate (confidence 1) [173082C7], AccurateRip returned [DE280C97] (AR v2)
Track 3 cannot be verified as accurate (confidence 1) [1110A5F1], AccurateRip returned [EF5DD017] (AR v2)
Track 4 cannot be verified as accurate (confidence 1) [47E9D7EB], AccurateRip returned [B9AF042A] (AR v2)
Track 5 cannot be verified as accurate (confidence 1) [16F25455], AccurateRip returned [4358954C] (AR v2)
Track 6 cannot be verified as accurate (confidence 1) [10EB4562], AccurateRip returned [B944C635] (AR v2)
Track 7 cannot be verified as accurate (confidence 1) [363DD15E], AccurateRip returned [88CD0411] (AR v2)
Track 8 cannot be verified as accurate (confidence 1) [EAE3F945], AccurateRip returned [2D1780F0] (AR v2)
Track 9 cannot be verified as accurate (confidence 1) [A30348A6], AccurateRip returned [26831C20] (AR v2)

No tracks could be verified as accurate
You may have a different pressing from the one(s) in the database

End of status report

==== Log checksum 79AE5117A58C405448B6B5E8C37492EB63C9A1DCC349CF54A47209585AB2D65C ====

Exact Audio Copy V1.1 from 23. June 2015

EAC extraction logfile from 16. June 2016, 19:42

Dream Theater / Forbidden Dreams CD 4 – Festival Hall Osaka, Japan 1993-08-28

Used drive : HL-DT-STBD-RE WH16NS40 Adapter: 6 ID: 0

Read mode : Secure
Utilize accurate stream : Yes
Defeat audio cache : Yes
Make use of C2 pointers : No

Read offset correction : 6
Overread into Lead-In and Lead-Out : No
Fill up missing offset samples with silence : Yes
Delete leading and trailing silent blocks : No
Null samples used in CRC calculations : Yes
Used interface : Installed external ASPI interface

Used output format : Internal WAV Routines
Sample format : 44.100 Hz; 16 Bit; Stereo

TOC of the extracted CD

Track | Start | Length | Start sector | End sector
———————————————————
1 | 0:00.00 | 12:46.33 | 0 | 57482
2 | 12:46.33 | 6:37.40 | 57483 | 87297
3 | 19:23.73 | 4:51.55 | 87298 | 109177
4 | 24:15.53 | 10:15.25 | 109178 | 155327
5 | 34:31.03 | 5:05.28 | 155328 | 178230
6 | 39:36.31 | 13:42.66 | 178231 | 239946

Range status and errors

Selected range

Filename Z:\data\hexonut\Seeding\Dream Theater\Bootlegs\2002-Forbidden Dreams\Forbidden Dreams CD 4 – Festival Hall Osaka, Japan 1993-08-28.wav

Peak level 100.0 %
Extraction speed 7.3 X
Range quality 100.0 %
Test CRC 14F78725
Copy CRC 14F78725
Copy OK

No errors occurred

AccurateRip summary

Track 1 accurately ripped (confidence 2) [C36311F0] (AR v1)
Track 2 accurately ripped (confidence 2) [4E3C7A38] (AR v1)
Track 3 accurately ripped (confidence 2) [1038DBFE] (AR v1)
Track 4 accurately ripped (confidence 2) [2E9DF0D3] (AR v1)
Track 5 accurately ripped (confidence 2) [0F37F30B] (AR v1)
Track 6 accurately ripped (confidence 2) [86F0FC9F] (AR v1)

All tracks accurately ripped

End of status report

==== Log checksum 907AFD246BE2EB0452D0CC0916CDF8FCD9FA65A7754A23B113F29ACC1A46BBFD ====

Exact Audio Copy V1.1 from 23. June 2015

EAC extraction logfile from 16. June 2016, 22:13

Dream Theater / Forbidden Dreams CD 5 – Shinjuku Kouseinenkin Kaikan Hall Tokyo, Japan 1995-01-23

Used drive : PLEXTOR CD-R PX-240A Adapter: 0 ID: 0

Read mode : Secure
Utilize accurate stream : Yes
Defeat audio cache : Yes
Make use of C2 pointers : No

Read offset correction : 6
Overread into Lead-In and Lead-Out : No
Fill up missing offset samples with silence : Yes
Delete leading and trailing silent blocks : No
Null samples used in CRC calculations : Yes
Used interface : Installed external ASPI interface

Used output format : Internal WAV Routines
Sample format : 44.100 Hz; 16 Bit; Stereo

TOC of the extracted CD

Track | Start | Length | Start sector | End sector
———————————————————
1 | 0:00.00 | 8:59.58 | 0 | 40482
2 | 8:59.58 | 6:00.07 | 40483 | 67489
3 | 14:59.65 | 14:03.26 | 67490 | 130740
4 | 29:03.16 | 9:55.65 | 130741 | 175430
5 | 38:59.06 | 14:57.44 | 175431 | 242749
6 | 53:56.50 | 6:52.33 | 242750 | 273682
7 | 60:49.08 | 6:39.65 | 273683 | 303672

Range status and errors

Selected range

Filename Z:\data\hexonut\Seeding\Dream Theater\Bootlegs\2002-Forbidden Dreams\Forbidden Dreams CD 5 – Shinjuku Kouseinenkin Kaikan Hall Tokyo, Japan 1995-01-23.wav

Peak level 97.1 %
Extraction speed 10.2 X
Range quality 100.0 %
Test CRC 95774155
Copy CRC 95774155
Copy OK

No errors occurred

AccurateRip summary

Track 1 accurately ripped (confidence 2) [6D0728AC] (AR v1)
Track 2 accurately ripped (confidence 2) [F898D37B] (AR v1)
Track 3 accurately ripped (confidence 2) [B5B3BBA5] (AR v1)
Track 4 accurately ripped (confidence 2) [71FA4CEA] (AR v1)
Track 5 accurately ripped (confidence 2) [E0378556] (AR v1)
Track 6 accurately ripped (confidence 2) [DFEAF6AE] (AR v1)
Track 7 accurately ripped (confidence 2) [DAE2A1A9] (AR v1)

All tracks accurately ripped

End of status report

==== Log checksum B11E2BD1F748153E3369DFF91404473CCD5F5889791A6E2BCE7BD324600F4C5B ====

REM GENRE “Progressive Metal”
REM DATE 2002
REM DISCID 570B9D07
REM COMMENT “ExactAudioCopy v1.1”
PERFORMER “Dream Theater”
TITLE “Forbidden Dreams CD 1 – Imperial Hall Osaka, Japan 1992-11-19”
FILE “Forbidden Dreams CD 1 – Imperial Hall Osaka, Japan 1992-11-19.wav” WAVE
TRACK 01 AUDIO
TITLE “Intro – Simpson’s Theme”
PERFORMER “Dream Theater”
INDEX 01 00:00:00
TRACK 02 AUDIO
TITLE “Metropolis Part I”
PERFORMER “Dream Theater”
INDEX 01 01:12:03
TRACK 03 AUDIO
TITLE “Under a Glass Moon”
PERFORMER “Dream Theater”
INDEX 01 11:02:71
TRACK 04 AUDIO
TITLE “Only a Matter of Time”
PERFORMER “Dream Theater”
INDEX 01 18:32:61
TRACK 05 AUDIO
TITLE “Surrounded”
PERFORMER “Dream Theater”
INDEX 01 25:28:13
TRACK 06 AUDIO
TITLE “Pull Me Under”
PERFORMER “Dream Theater”
INDEX 01 31:17:11
TRACK 07 AUDIO
TITLE “Ytsejam”
PERFORMER “Dream Theater”
INDEX 01 39:51:63

REM GENRE “Progressive Metal”
REM DATE 2002
REM DISCID 580D7D07
REM COMMENT “ExactAudioCopy v1.1”
PERFORMER “Dream Theater”
TITLE “Forbidden Dreams CD 2 – Imperial Hall Osaka, Japan 1992-11-19”
FILE “Forbidden Dreams CD 2 – Imperial Hall Osaka, Japan 1992-11-19.wav” WAVE
TRACK 01 AUDIO
TITLE “Moon Bubbles”
PERFORMER “Dream Theater”
INDEX 01 00:00:00
TRACK 02 AUDIO
TITLE “Another Day”
PERFORMER “Dream Theater”
INDEX 01 10:00:16
TRACK 03 AUDIO
TITLE “Another Hand – The Killing Hand”
PERFORMER “Dream Theater”
INDEX 01 14:23:11
TRACK 04 AUDIO
TITLE “Take The Time”
PERFORMER “Dream Theater”
INDEX 01 26:19:37
TRACK 05 AUDIO
TITLE “Wait For Sleep”
PERFORMER “Dream Theater”
INDEX 01 38:45:04
TRACK 06 AUDIO
TITLE “Learning To Live”
PERFORMER “Dream Theater”
INDEX 01 42:34:53
TRACK 07 AUDIO
TITLE “Outro: Twin Peaks”
PERFORMER “Dream Theater”
INDEX 01 55:58:21

REM GENRE “Progressive Metal”
REM DATE 2002
REM DISCID 890D9309
REM COMMENT “ExactAudioCopy v1.1”
PERFORMER “Dream Theater”
TITLE “Forbidden Dreams CD 3 – Festival Hall Osaka, Japan 1993-08-28”
FILE “Forbidden Dreams CD 3 – Festival Hall Osaka, Japan 1993-08-28.wav” WAVE
TRACK 01 AUDIO
TITLE “Metropolis Part 1”
PERFORMER “Dream Theater”
INDEX 01 00:00:00
TRACK 02 AUDIO
TITLE “Mission Impossible”
PERFORMER “Dream Theater”
INDEX 01 09:33:26
TRACK 03 AUDIO
TITLE “Afterlife”
PERFORMER “Dream Theater”
INDEX 01 10:50:50
TRACK 04 AUDIO
TITLE “Under A Glass Moon”
PERFORMER “Dream Theater”
INDEX 01 17:15:33
TRACK 05 AUDIO
TITLE “Wait For Sleep”
PERFORMER “Dream Theater”
INDEX 01 24:56:69
TRACK 06 AUDIO
TITLE “Surrounded”
PERFORMER “Dream Theater”
INDEX 01 27:43:58
TRACK 07 AUDIO
TITLE “The Ytse Jam”
PERFORMER “Dream Theater”
INDEX 01 34:03:32
TRACK 08 AUDIO
TITLE “Puppies On Acid”
PERFORMER “Dream Theater”
INDEX 01 44:57:68
TRACK 09 AUDIO
TITLE “Take The Time”
PERFORMER “Dream Theater”
INDEX 01 46:54:33

REM GENRE “Progressive Metal”
REM DATE 2002
REM DISCID 550C7F06
REM COMMENT “ExactAudioCopy v1.1”
PERFORMER “Dream Theater”
TITLE “Forbidden Dreams CD 4 – Festival Hall Osaka, Japan 1993-08-28”
FILE “Forbidden Dreams CD 4 – Festival Hall Osaka, Japan 1993-08-28.wav” WAVE
TRACK 01 AUDIO
TITLE “To Live Forever – Jam”
PERFORMER “Dream Theater”
INDEX 01 00:00:00
TRACK 02 AUDIO
TITLE “A Fortune In Lies”
PERFORMER “Dream Theater”
INDEX 01 12:46:33
TRACK 03 AUDIO
TITLE “Another Day”
PERFORMER “Dream Theater”
INDEX 01 19:23:73
TRACK 04 AUDIO
TITLE “Pull Me Under”
PERFORMER “Dream Theater”
INDEX 01 24:15:53
TRACK 05 AUDIO
TITLE “Eve”
PERFORMER “Dream Theater”
INDEX 01 34:31:03
TRACK 06 AUDIO
TITLE “Learning To Live”
PERFORMER “Dream Theater”
INDEX 01 39:36:31

REM GENRE “Progressive Metal”
REM DATE 2002
REM DISCID 500FD007
REM COMMENT “ExactAudioCopy v1.1”
PERFORMER “Dream Theater”
TITLE “Forbidden Dreams CD 5 – Shinjuku Koseinenkin Kaikan Hall Tokyo, Japan 1995-01-23”
FILE “Forbidden Dreams CD 5 – Shinjuku Koseinenkin Kaikan Hall Tokyo, Japan 1995-01-23.wav” WAVE
TRACK 01 AUDIO
TITLE “Pull Me Under”
PERFORMER “Dream Theater”
INDEX 01 00:00:00
TRACK 02 AUDIO
TITLE “6 Oclock”
PERFORMER “Dream Theater”
ISRC LIT000004268
INDEX 01 08:59:58
TRACK 03 AUDIO
TITLE “Take The Time”
PERFORMER “Dream Theater”
INDEX 01 14:59:65
TRACK 04 AUDIO
TITLE “Caught In A Web”
PERFORMER “Dream Theater”
INDEX 01 29:03:16
TRACK 05 AUDIO
TITLE “Lifting Shadows Off A Dream”
PERFORMER “Dream Theater”
INDEX 01 38:59:06
TRACK 06 AUDIO
TITLE “The Mirror”
PERFORMER “Dream Theater”
INDEX 01 53:56:50
TRACK 07 AUDIO
TITLE “Lie”
PERFORMER “Dream Theater”
INDEX 01 60:49:08

REM GENRE “Progressive Metal”
REM DATE 2002
REM DISCID 4D0AE107
REM COMMENT “ExactAudioCopy v1.1”
PERFORMER “Dream Theater”
TITLE “Forbidden Dreams CD 6 – Shinjuku Koseinenkin Kaikan Hall Tokyo, Japan 1995-01-23”
FILE “Forbidden Dreams CD 6 – Shinjuku Koseinenkin Kaikan Hall Tokyo, Japan 1995-01-23.wav” WAVE
TRACK 01 AUDIO
TITLE “Another Day”
PERFORMER “Dream Theater”
INDEX 01 00:00:00
TRACK 02 AUDIO
TITLE “In The Flesh”
PERFORMER “Dream Theater”
INDEX 01 05:23:24
TRACK 03 AUDIO
TITLE “Erotomania”
PERFORMER “Dream Theater”
INDEX 01 08:19:04
TRACK 04 AUDIO
TITLE “Voices”
PERFORMER “Dream Theater”
INDEX 01 15:04:15
TRACK 05 AUDIO
TITLE “The Silent Man”
PERFORMER “Dream Theater”
INDEX 01 25:19:18
TRACK 06 AUDIO
TITLE “Metropolis – Part 1”
PERFORMER “Dream Theater”
INDEX 01 29:29:58
TRACK 07 AUDIO
TITLE “Eve”
PERFORMER “Dream Theater”
INDEX 01 41:23:68


Leave a Reply

Your email address will not be published. Required fields are marked *

Enter the text from the image below
 

This site uses Akismet to reduce spam. Learn how your comment data is processed.