Dream Theater – Falling Into Infinity (Japanese Edition)




[Total: 0    Average: 0/5]

Artist: Dream Theater
Year: 1997
Genre: Metal
Notes: Discogs
Add. Notes: Japanese Edition
Cover incl.: Yes
Encoder: FLAC
Bitrate: ~1000 kBit/s (44.1 kHz/16 Bit/s)
Log & Cue incl.: Yes
Size: 672,06 MB
Password: “slam” (without ” “)


All Downloads/Hosters are compatible

Download 1
Share-online.biz
KatFile.com
Rapidgator.net
Usersdrive.com
Download 2
Share-online.biz
KatFile.com
Rapidgator.net
Usersdrive.com

Tracklist:

1-1 - New Millennium - 8:20
1-2 - You Not Me - 4:58
1-3 - Peruvian Skies - 6:43
1-4 - Hollow Years - 5:53
1-5 - Burning My Soul - 5:29
1-6 - Hell's Kitchen - 4:16
1-7 - Lines In The Sand - 12:05
1-8 - Take Away My Pain - 6:03
1-9 - Just Let Me Breathe - 5:28
1-10 - Anna Lee - 5:51
1-11 - Trial Of Tears - 13:07
Bonus Disc
2-1 - Take Away My Pain (Demo Version)
2-2 - Speak To Me (Demo Version)

EAC-Log, CUE-Sheed & NFO:

Click to open spoiler
Exact Audio Copy V1.0 beta 1 from 15. November 2010

EAC extraction logfile from 19. December 2010, 22:27

Dream Theater / Falling Into Infinity

Used drive : PLEXTOR CD-R PX-240A Adapter: 1 ID: 1

Read mode : Secure
Utilize accurate stream : Yes
Defeat audio cache : Yes
Make use of C2 pointers : No

Read offset correction : 6
Overread into Lead-In and Lead-Out : No
Fill up missing offset samples with silence : Yes
Delete leading and trailing silent blocks : No
Null samples used in CRC calculations : Yes
Used interface : Installed external ASPI interface

Used output format : Internal WAV Routines
Sample format : 44.100 Hz; 16 Bit; Stereo

TOC of the extracted CD

Track | Start | Length | Start sector | End sector
———————————————————
1 | 0:00.00 | 8:20.48 | 0 | 37547
2 | 8:20.48 | 4:58.65 | 37548 | 59962
3 | 13:19.38 | 6:43.02 | 59963 | 90189
4 | 20:02.40 | 5:53.53 | 90190 | 116717
5 | 25:56.18 | 5:29.12 | 116718 | 141404
6 | 31:25.30 | 4:16.63 | 141405 | 160667
7 | 35:42.18 | 12:05.45 | 160668 | 215087
8 | 47:47.63 | 6:03.07 | 215088 | 242319
9 | 53:50.70 | 5:28.60 | 242320 | 266979
10 | 59:19.55 | 5:51.38 | 266980 | 293342
11 | 65:11.18 | 13:06.50 | 293343 | 352342

Range status and errors

Selected range

Filename Z:\data\mp3\Seeding\Dream Theater\Albums\1997-Falling Into Infinity Japan\fiijpn1.wav

Peak level 100.0 %
Extraction speed 1.1 X
Range quality 100.0 %
Test CRC 12F3AD54
Copy CRC 12F3AD54
Copy OK

No errors occurred

AccurateRip summary

Track 1 accurately ripped (confidence 6) [0A280B9C]
Track 2 accurately ripped (confidence 6) [EB05A1D0]
Track 3 accurately ripped (confidence 6) [01417911]
Track 4 accurately ripped (confidence 6) [44F6FE46]
Track 5 accurately ripped (confidence 6) [7AC19C86]
Track 6 accurately ripped (confidence 6) [6B6EE37E]
Track 7 accurately ripped (confidence 6) [5E772DA7]
Track 8 accurately ripped (confidence 6) [F2963975]
Track 9 accurately ripped (confidence 6) [16965868]
Track 10 accurately ripped (confidence 6) [713588B6]
Track 11 accurately ripped (confidence 6) [A6C64C3B]

All tracks accurately ripped

End of status report

Exact Audio Copy V1.0 beta 1 from 15. November 2010

EAC extraction logfile from 20. December 2010, 14:16

DREAM THEATER / Falling Into Infinity (Bonus CD)

Used drive : PLEXTOR CD-R PX-240A Adapter: 1 ID: 1

Read mode : Secure
Utilize accurate stream : Yes
Defeat audio cache : Yes
Make use of C2 pointers : No

Read offset correction : 6
Overread into Lead-In and Lead-Out : No
Fill up missing offset samples with silence : Yes
Delete leading and trailing silent blocks : No
Null samples used in CRC calculations : Yes
Used interface : Installed external ASPI interface

Used output format : Internal WAV Routines
Sample format : 44.100 Hz; 16 Bit; Stereo

TOC of the extracted CD

Track | Start | Length | Start sector | End sector
———————————————————
1 | 0:00.00 | 6:51.22 | 0 | 30846
2 | 6:51.22 | 6:11.40 | 30847 | 58711

Range status and errors

Selected range

Filename Z:\data\mp3\Seeding\Dream Theater\Albums\1997-Falling Into Infinity Japan\fiijpn2.wav

Peak level 100.0 %
Extraction speed 1.6 X
Range quality 100.0 %
Test CRC 7EB19FB9
Copy CRC 7EB19FB9
Copy OK

No errors occurred

AccurateRip summary

Track 1 accurately ripped (confidence 3) [79974BCB]
Track 2 accurately ripped (confidence 3) [271A22C9]

All tracks accurately ripped

End of status report

REM GENRE “Progressive Metal”
REM DATE 1997
REM DISCID 9112590B
REM COMMENT “ExactAudioCopy v1.0b1”
CATALOG 4988029231543
PERFORMER “Dream Theater”
TITLE “Falling Into Infinity [Japan] CD 1”
FILE “fiijpn1.flac” WAVE
TRACK 01 AUDIO
TITLE “New Millennium”
PERFORMER “Dream Theater”
ISRC USEW19794544
INDEX 01 00:00:00
TRACK 02 AUDIO
TITLE “You Not Me”
PERFORMER “Dream Theater”
ISRC USEW19794545
INDEX 01 08:20:48
TRACK 03 AUDIO
TITLE “Peruvian Skies”
PERFORMER “Dream Theater”
ISRC USEW19794546
INDEX 00 13:18:50
INDEX 01 13:19:38
TRACK 04 AUDIO
TITLE “Hollow Years”
PERFORMER “Dream Theater”
ISRC USEW19794547
INDEX 00 20:01:65
INDEX 01 20:02:40
TRACK 05 AUDIO
TITLE “Burning My Soul”
PERFORMER “Dream Theater”
ISRC USEW19794548
INDEX 01 25:56:18
TRACK 06 AUDIO
TITLE “Hell’s Kitchen”
PERFORMER “Dream Theater”
ISRC USEW19794549
INDEX 01 31:25:30
TRACK 07 AUDIO
TITLE “Lines In The Sand”
PERFORMER “Dream Theater”
ISRC USEW19794550
INDEX 01 35:42:18
TRACK 08 AUDIO
TITLE “Take Away My Pain”
PERFORMER “Dream Theater”
ISRC USEW19794551
INDEX 00 47:47:00
INDEX 01 47:47:63
TRACK 09 AUDIO
TITLE “Just Let Me Breathe”
PERFORMER “Dream Theater”
ISRC USEW19794552
INDEX 01 53:50:70
TRACK 10 AUDIO
TITLE “Anna Lee”
PERFORMER “Dream Theater”
ISRC USEW19794553
INDEX 00 59:18:48
INDEX 01 59:19:55
TRACK 11 AUDIO
TITLE “Trial Of Tears (I: It’s Raining; II: Deep In Heaven; III: The Wasteland)”
PERFORMER “Dream Theater”
ISRC USEW19794554
INDEX 01 65:11:18

REM GENRE “Progressive Metal”
REM DATE 1997
REM DISCID 0A030E02
REM COMMENT “ExactAudioCopy v1.0b1”
CATALOG 4988029231543
PERFORMER “Dream Theater”
TITLE “Falling Into Infinity [Japan] CD 2”
FILE “fiijpn2.flac” WAVE
TRACK 01 AUDIO
TITLE “Take Away My Pain (Demo)”
PERFORMER “Dream Theater”
INDEX 01 00:00:00
TRACK 02 AUDIO
TITLE “Speak To Me (Demo)”
PERFORMER “Dream Theater”
INDEX 00 06:50:32
INDEX 01 06:51:22


Spread the Download

Leave a Reply

Your email address will not be published. Required fields are marked *

Enter the text from the image below
 

This site uses Akismet to reduce spam. Learn how your comment data is processed.