Dream Theater – Dying To Live Forever




Artist: Dream Theater
Year: 2015
Genre: Metal
Notes: Discogs
Add. Notes:
Cover incl.: Yes
Encoder: FLAC
Bitrate: ~900 kBit/s (44.1 kHz/16 Bit/s)
Log & Cue incl.: Yes
Size: 675 MB
Password: “slam” (without ” “)


All Downloads/Hosters are compatible

Download 1
KatFile.com
Turbobit.net
FileFactory.com
Rapidgator.net
Download 2
KatFile.com
Turbobit.net
FileFactory.com
Rapidgator.net

Tracklist:

Disc One
1 Metropolis, Part 1: The Miracle And The Sleeper 10:02
2 Under A Glass Moon 7:51
3 A Fortune In Lies 5:35
4 Wait For Sleep / Surrounded 9:10
5 Puppies On Acid / Take The Time 12:55
6 To Live Forever / Drum Solo 18:36
Disc Two
1 Status Seeker 4:45
2 Another Day 5:15
3 Pull Me Under 10:07
4 Jam 4:54
5 Learning To Live 13:11
6 DJ Outro 1:33

EAC-Log, CUE-Sheed & NFO:

Click to open spoiler
Exact Audio Copy V1.1 from 23. June 2015

EAC extraction logfile from 22. March 2016, 14:13

Dream Theater / Dying To Live Forever CD1

Used drive : HL-DT-STBD-RE WH16NS40 Adapter: 6 ID: 0

Read mode : Secure
Utilize accurate stream : Yes
Defeat audio cache : Yes
Make use of C2 pointers : No

Read offset correction : 6
Overread into Lead-In and Lead-Out : No
Fill up missing offset samples with silence : Yes
Delete leading and trailing silent blocks : No
Null samples used in CRC calculations : Yes
Used interface : Installed external ASPI interface

Used output format : Internal WAV Routines
Sample format : 44.100 Hz; 16 Bit; Stereo

TOC of the extracted CD

Track | Start | Length | Start sector | End sector
———————————————————
1 | 0:00.00 | 10:03.06 | 0 | 45230
2 | 10:03.06 | 7:50.30 | 45231 | 80510
3 | 17:53.36 | 5:34.55 | 80511 | 105615
4 | 23:28.16 | 9:09.34 | 105616 | 146824
5 | 32:37.50 | 12:54.71 | 146825 | 204945
6 | 45:32.46 | 18:37.74 | 204946 | 288794

Range status and errors

Selected range

Filename Z:\data\hexonut\Seeding\Dream Theater\Bootlegs\2016-Dying To Live Forever\Dying To Live Forever CD1.wav

Peak level 61.4 %
Extraction speed 7.7 X
Range quality 100.0 %
Test CRC D9633E94
Copy CRC D9633E94
Copy OK

No errors occurred

AccurateRip summary

Track 1 not present in database
Track 2 not present in database
Track 3 not present in database
Track 4 not present in database
Track 5 not present in database
Track 6 not present in database

None of the tracks are present in the AccurateRip database

End of status report

==== Log checksum D1585B79791EB3ABD1734A569F429AB580B10EDB20D4165C1B0CCCE98B668C7E ====

Exact Audio Copy V1.1 from 23. June 2015

EAC extraction logfile from 22. March 2016, 15:04

Dream Theater / Dying To Live Forever CD2

Used drive : HL-DT-STBD-RE WH16NS40 Adapter: 6 ID: 0

Read mode : Secure
Utilize accurate stream : Yes
Defeat audio cache : Yes
Make use of C2 pointers : No

Read offset correction : 6
Overread into Lead-In and Lead-Out : No
Fill up missing offset samples with silence : Yes
Delete leading and trailing silent blocks : No
Null samples used in CRC calculations : Yes
Used interface : Installed external ASPI interface

Used output format : Internal WAV Routines
Sample format : 44.100 Hz; 16 Bit; Stereo

TOC of the extracted CD

Track | Start | Length | Start sector | End sector
———————————————————
1 | 0:00.00 | 4:45.26 | 0 | 21400
2 | 4:45.26 | 5:14.55 | 21401 | 45005
3 | 10:00.06 | 10:07.11 | 45006 | 90541
4 | 20:07.17 | 4:54.09 | 90542 | 112600
5 | 25:01.26 | 13:11.29 | 112601 | 171954
6 | 38:12.55 | 1:33.61 | 171955 | 178990

Range status and errors

Selected range

Filename Z:\data\hexonut\Seeding\Dream Theater\Bootlegs\2016-Dying To Live Forever\Dying To Live Forever CD2.wav

Peak level 60.5 %
Extraction speed 6.8 X
Range quality 100.0 %
Test CRC 815A7618
Copy CRC 815A7618
Copy OK

No errors occurred

AccurateRip summary

Track 1 not present in database
Track 2 not present in database
Track 3 not present in database
Track 4 not present in database
Track 5 not present in database
Track 6 not present in database

None of the tracks are present in the AccurateRip database

End of status report

==== Log checksum 5C52F0CE2E18CEADA7BF5303C80DB8B7038933EDB4F31C544A0C8232B28B56BD ====

REM GENRE “Progressive Metal”
REM DATE 2015
REM DISCID 480F0A06
REM COMMENT “ExactAudioCopy v1.1”
PERFORMER “Dream Theater”
TITLE “Dying To Live Forever CD 1”
FILE “Dying To Live Forever CD1.wav” WAVE
TRACK 01 AUDIO
TITLE “Metropolis Part 1: The Miracle And The Sleeper”
PERFORMER “Dream Theater”
INDEX 01 00:00:00
TRACK 02 AUDIO
TITLE “Under A Glass Moon”
PERFORMER “Dream Theater”
INDEX 01 10:03:06
TRACK 03 AUDIO
TITLE “A Fortune In Lies”
PERFORMER “Dream Theater”
INDEX 01 17:53:36
TRACK 04 AUDIO
TITLE “Wait For Sleep – Surrounded”
PERFORMER “Dream Theater”
INDEX 01 23:28:16
TRACK 05 AUDIO
TITLE “Puppies On Acid – Take The Time”
PERFORMER “Dream Theater”
INDEX 01 32:37:50
TRACK 06 AUDIO
TITLE “To Live Forever – Drum Solo”
PERFORMER “Dream Theater”
INDEX 01 45:32:46

REM GENRE “Progressive Metal”
REM DATE 2015
REM DISCID 41095206
REM COMMENT “ExactAudioCopy v1.1”
PERFORMER “Dream Theater”
TITLE “Dying To Live Forever CD 2”
FILE “Dying To Live Forever CD2.wav” WAVE
TRACK 01 AUDIO
TITLE “Status Seeker”
PERFORMER “Dream Theater”
INDEX 01 00:00:00
TRACK 02 AUDIO
TITLE “Another Day”
PERFORMER “Dream Theater”
INDEX 01 04:45:26
TRACK 03 AUDIO
TITLE “Pull Me Under”
PERFORMER “Dream Theater”
INDEX 01 10:00:06
TRACK 04 AUDIO
TITLE “Jam”
PERFORMER “Dream Theater”
INDEX 01 20:07:17
TRACK 05 AUDIO
TITLE “Learning To Live”
PERFORMER “Dream Theater”
INDEX 01 25:01:26
TRACK 06 AUDIO
TITLE “DJ Outro”
PERFORMER “Dream Theater”
INDEX 01 38:12:55


Leave a Reply

Your email address will not be published. Required fields are marked *

Enter the text from the image below
 

This site uses Akismet to reduce spam. Learn how your comment data is processed.