Dream Theater – Dream Theater (Limited Edition)




[Total: 0    Average: 0/5]

Artist: Dream Theater
Year: 2013
Genre: Metal
Notes: Discogs
Add. Notes: Limited Edition
Cover incl.: Yes
Encoder: FLAC
Bitrate: ~1000 kBit/s (44.1 kHz/16 Bit/s)
Log & Cue incl.: Yes
Password: “slam” (without ” “)


All Downloads/Hosters are compatible

Download 1
KatFile.com
Turbobit.net
FileFactory.com
Rapidgator.net
Download 2
KatFile.com
Turbobit.net
FileFactory.com
Rapidgator.net

Tracklist:

False Awakening Suite (2:41)
CD-1.i Sleep Paralysis 
CD-1.ii Night Terrors 
CD-1.iii Lucid Dream 
CD-2 The Enemy Inside 6:17
CD-3 The Looking Glass 4:52
CD-4 Enigma Machine 6:01
CD-5 The Bigger Picture 7:40
CD-6 Behind The Veil 6:52
CD-7 Surrender To Reason 6:34
CD-8 Along For The Ride 4:44
Illumination Theory (22:16)
CD-9.i Paradoxe De La Lumière Noire 
CD-9.ii Live, Die, Kill 
CD-9.iii The Embracing Circle 
CD-9.iv The Pursuit Of Truth 
CD-9.v Surrender, Trust & Passion

EAC-Log, CUE-Sheed & NFO:

Click to open spoiler
Exact Audio Copy V1.0 beta 3 from 29. August 2011

EAC extraction logfile from 4. November 2013, 13:04

Dream Theater / Dream Theater

Used drive : LITE-ON DVDRW LH-20A1L Adapter: 1 ID: 0

Read mode : Secure
Utilize accurate stream : Yes
Defeat audio cache : Yes
Make use of C2 pointers : No

Read offset correction : 6
Overread into Lead-In and Lead-Out : No
Fill up missing offset samples with silence : Yes
Delete leading and trailing silent blocks : No
Null samples used in CRC calculations : Yes
Used interface : Installed external ASPI interface

Used output format : Internal WAV Routines
Sample format : 44.100 Hz; 16 Bit; Stereo

TOC of the extracted CD

Track | Start | Length | Start sector | End sector
———————————————————
1 | 0:00.00 | 2:42.08 | 0 | 12157
2 | 2:42.08 | 6:17.28 | 12158 | 40460
3 | 8:59.36 | 4:53.05 | 40461 | 62440
4 | 13:52.41 | 6:01.59 | 62441 | 89574
5 | 19:54.25 | 7:40.49 | 89575 | 124123
6 | 27:34.74 | 6:52.47 | 124124 | 155070
7 | 34:27.46 | 6:34.57 | 155071 | 184677
8 | 41:02.28 | 4:45.09 | 184678 | 206061
9 | 45:47.37 | 22:17.68 | 206062 | 306404

Range status and errors

Selected range

Filename Z:\data\Seeding\Dream Theater\Albums\2013-Dream Theater\Dream Theater.wav

Peak level 100.0 %
Extraction speed 9.6 X
Range quality 100.0 %
Test CRC A619DB4A
Copy CRC A619DB4A
Copy OK

No errors occurred

AccurateRip summary

Track 1 accurately ripped (confidence 15) [1B4EFBBD] (AR v2)
Track 2 accurately ripped (confidence 15) [3F36CBD4] (AR v2)
Track 3 accurately ripped (confidence 15) [EDE6F199] (AR v2)
Track 4 accurately ripped (confidence 15) [74240B9F] (AR v2)
Track 5 accurately ripped (confidence 15) [7FCE126F] (AR v2)
Track 6 accurately ripped (confidence 15) [8E606064] (AR v2)
Track 7 accurately ripped (confidence 15) [7FF1100E] (AR v2)
Track 8 accurately ripped (confidence 15) [E2356169] (AR v2)
Track 9 accurately ripped (confidence 15) [1393EFBC] (AR v2)

All tracks accurately ripped

End of status report

==== Log checksum C49A67F6DF5F1F779CAB0F659B8C8E2D25AF7B232018CAEE17A1EED6A4FF3E8C ====

REM GENRE “Progressive Metal”
REM DATE 2013
REM DISCID 800FF509
REM COMMENT “ExactAudioCopy v1.0b3”
CATALOG 0016861760427
PERFORMER “Dream Theater”
TITLE “Dream Theater”
FILE “Dream Theater.wav” WAVE
TRACK 01 AUDIO
TITLE “False Awakening Suite”
PERFORMER “Dream Theater”
ISRC NLA321392676
INDEX 01 00:00:00
TRACK 02 AUDIO
TITLE “The Enemy Inside”
PERFORMER “Dream Theater”
ISRC NLA321392677
INDEX 01 02:42:08
TRACK 03 AUDIO
TITLE “The Looking Glass”
PERFORMER “Dream Theater”
ISRC NLA321392678
INDEX 01 08:59:36
TRACK 04 AUDIO
TITLE “Enigma Machine”
PERFORMER “Dream Theater”
ISRC NLA321392679
INDEX 01 13:52:41
TRACK 05 AUDIO
TITLE “The Bigger Picture”
PERFORMER “Dream Theater”
ISRC NLA321392680
INDEX 01 19:54:25
TRACK 06 AUDIO
TITLE “Behind The Veil”
PERFORMER “Dream Theater”
ISRC NLA321392681
INDEX 01 27:34:74
TRACK 07 AUDIO
TITLE “Surrender To Reason”
PERFORMER “Dream Theater”
ISRC NLA321392682
INDEX 01 34:27:46
TRACK 08 AUDIO
TITLE “Along For The Ride”
PERFORMER “Dream Theater”
ISRC NLA321392683
INDEX 01 41:02:28
TRACK 09 AUDIO
TITLE “Illumination Theory”
PERFORMER “Dream Theater”
ISRC NLA321392684
INDEX 01 45:47:37


Spread the Download

Leave a Reply

Your email address will not be published. Required fields are marked *

Enter the text from the image below
 

This site uses Akismet to reduce spam. Learn how your comment data is processed.