Dream Theater – Classic Live




Artist: Dream Theater
Year: 1993
Genre: Metal
Notes: Discogs
Add. Notes:
Cover incl.: Yes
Encoder: FLAC
Bitrate: ~800 kBit/s (44.1 kHz/16 Bit/s)
Log & Cue incl.: Yes
Size: 453,25 MB
Password: “slam” (without ” “)


All Downloads/Hosters are compatible

Download 1
Turbobit.net
NitroFlare.com
Rapidgator.net
Download 2
Turbobit.net
NitroFlare.com
Rapidgator.net

Tracklist:

1 - Under A Glass Moon - 7:20
2 - Only A Matter Of Time - 7:07
3 - Surrounded - 5:56
4 - Pull Me Under - 8:07
5 - The Ytse Jam - 7:43
6 - Another Day - 4:20
7 - The Killing Hand - 10:04
8 - Take The Time - 13:27
9 - Vital Star - 5:43

EAC-Log, CUE-Sheed & NFO:

Click to open spoiler
Exact Audio Copy V1.1 from 23. June 2015

EAC extraction logfile from 29. March 2017, 14:37

Dream Theater / Classic Live

Used drive : PLEXTOR CD-R PX-240A Adapter: 0 ID: 0

Read mode : Secure
Utilize accurate stream : Yes
Defeat audio cache : Yes
Make use of C2 pointers : No

Read offset correction : 6
Overread into Lead-In and Lead-Out : No
Fill up missing offset samples with silence : Yes
Delete leading and trailing silent blocks : No
Null samples used in CRC calculations : Yes
Used interface : Installed external ASPI interface

Used output format : Internal WAV Routines
Sample format : 44.100 Hz; 16 Bit; Stereo

TOC of the extracted CD

Track | Start | Length | Start sector | End sector
———————————————————
1 | 0:00.00 | 7:19.38 | 0 | 32962
2 | 7:19.38 | 7:07.20 | 32963 | 65007
3 | 14:26.58 | 5:56.05 | 65008 | 91712
4 | 20:22.63 | 8:06.57 | 91713 | 128219
5 | 28:29.45 | 7:43.05 | 128220 | 162949
6 | 36:12.50 | 4:20.05 | 162950 | 182454
7 | 40:32.55 | 10:03.55 | 182455 | 227734
8 | 50:36.35 | 13:26.53 | 227735 | 288237
9 | 64:03.13 | 5:43.25 | 288238 | 313987

Range status and errors

Selected range

Filename Z:\data\hexonut\Seeding\Dream Theater\Bootlegs\1993-Classic Live\Classic Live.wav

Peak level 100.0 %
Extraction speed 10.2 X
Range quality 99.9 %
Test CRC 3917FBBD
Copy CRC 3917FBBD
Copy OK

No errors occurred

AccurateRip summary

Track 1 accurately ripped (confidence 1) [BC960077] (AR v2)
Track 2 accurately ripped (confidence 1) [9FFA8BF8] (AR v2)
Track 3 accurately ripped (confidence 1) [C38AA617] (AR v2)
Track 4 accurately ripped (confidence 1) [F033056F] (AR v2)
Track 5 accurately ripped (confidence 1) [2C357AE6] (AR v2)
Track 6 accurately ripped (confidence 1) [A7950DBC] (AR v2)
Track 7 accurately ripped (confidence 1) [4E06E51D] (AR v2)
Track 8 accurately ripped (confidence 1) [7D10230E] (AR v2)
Track 9 accurately ripped (confidence 1) [DDCD79A2] (AR v2)

All tracks accurately ripped

End of status report

==== Log checksum 92CCF0B8EC0F7184411A5CF99B83960C0CAAA39D033359A8801C3581C99337E8 ====

REM GENRE “Progressive Metal”
REM DATE 1993
REM DISCID 71105A09
REM COMMENT “ExactAudioCopy v1.1”
PERFORMER “Dream Theater”
TITLE “Classic Live”
FILE “Classic Live.flac” WAVE
TRACK 01 AUDIO
TITLE “Under A Glass Moon”
PERFORMER “Dream Theater”
INDEX 01 00:00:00
TRACK 02 AUDIO
TITLE “Only A Matter of Time”
PERFORMER “Dream Theater”
INDEX 00 07:19:35
INDEX 01 07:19:38
TRACK 03 AUDIO
TITLE “Surrounded”
PERFORMER “Dream Theater”
INDEX 00 14:26:55
INDEX 01 14:26:58
TRACK 04 AUDIO
TITLE “Pull Me Under”
PERFORMER “Dream Theater”
INDEX 00 20:22:60
INDEX 01 20:22:63
TRACK 05 AUDIO
TITLE “The Ytse Jam”
PERFORMER “Dream Theater”
INDEX 00 28:29:43
INDEX 01 28:29:45
TRACK 06 AUDIO
TITLE “Another Day”
PERFORMER “Dream Theater”
INDEX 00 36:11:50
INDEX 01 36:12:50
TRACK 07 AUDIO
TITLE “The Killing Hand”
PERFORMER “Dream Theater”
INDEX 00 40:32:53
INDEX 01 40:32:55
TRACK 08 AUDIO
TITLE “Take The Time”
PERFORMER “Dream Theater”
INDEX 00 50:36:33
INDEX 01 50:36:35
TRACK 09 AUDIO
TITLE ” Vital Star (Majesty Demo)”
PERFORMER “Dream Theater”
INDEX 00 64:00:13
INDEX 01 64:03:13


Leave a Reply

Your email address will not be published. Required fields are marked *

Enter the text from the image below
 

This site uses Akismet to reduce spam. Learn how your comment data is processed.